<?xml version="1.0" standalone="no"?>
<!DOCTYPE svg PUBLIC "-//W3C//DTD SVG 1.1//EN" "http://www.w3.org/Graphics/SVG/1.1/DTD/svg11.dtd" >
<svg xmlns="http://www.w3.org/2000/svg" xmlns:xlink="http://www.w3.org/1999/xlink" version="1.1">
<metadata>
Created by FontForge 20170731 at Tue May 30 07:32:01 2017
 By Aleksey,,,
Copyright (c) 2017 by TypeType. Designers Ivan Gladkikh, Pavel Emelyanov. Technical designers Olexa Volochay, Nadyr Rakhimov, Dmitriy Greshnev. All rights reserved.
</metadata>
<defs>
<font id="TTNorms-Bold" horiz-adv-x="1228" >
  <font-face 
    font-family="TT Norms Bold"
    font-weight="700"
    font-stretch="normal"
    units-per-em="2048"
    panose-1="2 0 8 3 4 0 0 2 0 4"
    ascent="1638"
    descent="-410"
    x-height="1004"
    cap-height="1434"
    bbox="-358 -471 2945 2007"
    underline-thickness="0"
    underline-position="0"
    unicode-range="U+000D-FB06"
  />
<missing-glyph horiz-adv-x="0" 
 />
    <glyph glyph-name="ij" unicode="ij" horiz-adv-x="1146" 
d="M717 -61v86q-72 -45 -195 -45q-170 0 -279.5 113.5t-109.5 295.5v615h277v-615q0 -78 49 -126t125 -48q37 0 69.5 10.5t46.5 20.5l17 10v748h276v-1086q0 -168 -86 -258t-241 -90q-45 0 -89.5 8t-64.5 16l-20 7v245q51 -20 102 -20q53 0 88 33t35 80zM430 1290.5
q0 -69.5 -44 -111.5t-120 -42q-70 0 -111.5 42t-41.5 111.5t42 111.5t111 42q76 0 120 -42t44 -111.5zM1014 1290.5q0 -69.5 -44 -111.5t-120 -42q-70 0 -112 42t-42 111.5t42 111.5t112 42q76 0 120 -42t44 -111.5z" />
    <glyph glyph-name="uniFB00" unicode="ff" horiz-adv-x="1392" 
d="M1331 973v-246h-225v-727h-277v727h-368v-727h-277v727h-143v246h143v102q0 348 318 348q45 0 91 -7t71 -15l22 -8v-236q-41 20 -102 21q-53 0 -88 -33t-35 -80v-92h368v143q0 348 318 348q45 0 91 -7t69 -15l24 -8v-236q-41 20 -102 21q-53 0 -88 -33t-35 -80v-133h225z
" />
    <glyph glyph-name="uniFB01" unicode="fi" horiz-adv-x="1259" 
d="M1106 973v-973h-277v727h-368v-727h-277v727h-143v246h143v133q0 348 318 348q45 0 91 -8t71 -16l22 -7v-235q-41 20 -102 20q-53 0 -88 -32.5t-35 -79.5v-123h645zM1126 1290.5q0 -69.5 -44 -111.5t-119 -42q-70 0 -112 42t-42 111.5t42 111.5t112 42q76 0 119.5 -42
t43.5 -111.5z" />
    <glyph glyph-name="uniFB02" unicode="fl" horiz-adv-x="1259" 
d="M829 1034q0 70 -54 122t-130 52t-130 -52t-54 -122v-61h225v-246h-225v-727h-277v727h-143v246h143v61q0 186 128 308t333 122t333 -121.5t128 -308.5v-1034h-277v1034z" />
    <glyph glyph-name="uniFB03" unicode="ffi" horiz-adv-x="1904" 
d="M1751 973v-973h-276v727h-369v-727h-277v727h-368v-727h-277v727h-143v246h143v102q0 348 318 348q45 0 91 -7t71 -15l22 -8v-236q-41 20 -102 21q-53 0 -88 -33t-35 -80v-92h368v143q0 348 318 348q45 0 91 -7t69 -15l24 -8v-236q-41 20 -102 21q-53 0 -88 -33t-35 -80
v-133h645zM1772 1290.5q0 -69.5 -44.5 -111.5t-119.5 -42q-70 0 -112 42t-42 111.5t42 111.5t112 42q76 0 120 -42t44 -111.5z" />
    <glyph glyph-name="uniFB06" unicode="st" horiz-adv-x="1730" 
d="M471 1024h10v31q0 180 123 294.5t328 114.5q209 0 335 -130t126 -351h204v-246h-204v-399q0 -47 34.5 -80t88.5 -33q27 0 52 5.5t38 11.5l12 4v-236q-82 -31 -184 -30q-317 0 -318 348v409h-174v246h174q0 113 -53 174.5t-141 61.5q-84 0 -134.5 -50.5t-50.5 -134.5
q0 -41 20.5 -82t41.5 -61l20 -21l-143 -163q-6 8 -19.5 22t-56.5 36.5t-88 22.5q-57 0 -90 -24.5t-33 -56.5q0 -39 47 -65t114.5 -46.5t136.5 -49t116 -92t47 -157.5q0 -135 -106.5 -226t-292.5 -91q-80 0 -152 19t-117 46t-78.5 53.5t-48.5 44.5l-14 21l154 153
q8 -12 25.5 -30.5t73.5 -50t116 -31.5q66 0 99.5 25.5t33.5 66.5t-47 68.5t-116 48t-136.5 49.5t-114.5 90t-47 154q0 121 112.5 219t276.5 98z" />
    <glyph glyph-name="c_t.liga" unicode="ct" horiz-adv-x="1884" 
d="M1014 819l-174 -174q-8 14 -26.5 37t-80 59.5t-129.5 36.5q-109 0 -187.5 -81t-78.5 -195.5t79 -195.5t187 -81q68 0 129.5 33t89.5 66l27 34l164 -174q-6 -8 -16.5 -22.5t-48.5 -49t-82 -61t-114.5 -49t-148.5 -22.5q-221 0 -382 156.5t-161 365.5t161 365.5t382 156.5
h31v31q0 180 123 294.5t327 114.5q209 0 335 -130t126 -351h205v-246h-205v-399q0 -47 35 -80t88 -33q27 0 52.5 5.5t37.5 11.5l13 4v-236q-82 -31 -185 -30q-317 0 -317 348v409h-174v246h174q0 113 -53.5 174.5t-141.5 61.5q-84 0 -134 -50.5t-50 -134.5q0 -49 30.5 -103
t61.5 -83z" />
    <glyph glyph-name="s_p.liga" unicode="sp" horiz-adv-x="2191" 
d="M1628 -20q-86 0 -160.5 35.5t-105.5 70.5l-31 37v-553h-276v1434q0 104 -46 159.5t-118 55.5q-61 0 -107.5 -48.5t-46.5 -115.5q0 -49 20.5 -95.5t41.5 -66.5l20 -23l-143 -163q-6 8 -19.5 22t-56.5 36.5t-88 22.5q-57 0 -90 -24.5t-33 -56.5q0 -39 47 -65t114.5 -46.5
t136.5 -49t116 -92t47 -157.5q0 -135 -106.5 -226t-292.5 -91q-80 0 -152 19t-117 46t-78.5 53.5t-48.5 44.5l-14 21l154 153q8 -12 25.5 -30.5t73.5 -50t116 -31.5q66 0 99.5 25.5t33.5 66.5t-47 68.5t-116 48t-136.5 49.5t-114.5 90t-47 154q0 121 112.5 219t276.5 98h10
v31q0 178 118 293.5t302 115.5q195 0 312.5 -123.5t117.5 -336.5v-123q4 6 12.5 15t36 33.5t59 44t83 35t106.5 15.5q195 0 338 -151.5t143 -370.5t-143 -370.5t-338 -151.5zM1577 778q-102 0 -174 -77.5t-72 -198.5t72 -199t174 -78t174 78t72 199t-72 198.5t-174 77.5z
" />
    <glyph glyph-name="f_t.liga" unicode="ft" horiz-adv-x="1464" 
d="M881 1106v194h245v-327h205v-246h-205v-389q0 -47 35 -80t88 -33q27 0 52.5 5.5t37.5 11.5l13 4v-236q-82 -31 -185 -30q-317 0 -317 348v399h-389v-727h-277v727h-143v246h143v133q0 348 318 348q45 0 91 -8t71 -16l22 -7v-235q-41 20 -102 20q-53 0 -88 -32.5
t-35 -79.5v-123h307q47 0 80 37t33 96z" />
    <glyph glyph-name=".notdef" horiz-adv-x="0" 
 />
    <glyph glyph-name="glyph1" horiz-adv-x="0" 
 />
    <glyph glyph-name="glyph1" horiz-adv-x="0" 
 />
    <glyph glyph-name="uni000D" unicode="&#xd;" horiz-adv-x="0" 
 />
    <glyph glyph-name="space" unicode=" " horiz-adv-x="419" 
 />
    <glyph glyph-name="exclam" unicode="!" horiz-adv-x="675" 
d="M451 410h-226l-51 1024h328zM174 133.5q0 61.5 48 107.5t116 46t116 -46t48 -107.5t-48 -107.5t-116 -46t-116 46t-48 107.5z" />
    <glyph glyph-name="quotedbl" unicode="&#x22;" horiz-adv-x="849" 
d="M358 1434v-471h-245v471h245zM737 1434v-471h-245v471h245z" />
    <glyph glyph-name="numbersign" unicode="#" horiz-adv-x="1556" 
d="M1137 584h276l-41 -205h-276l-72 -379h-236l72 379h-297l-71 -379h-236l72 379h-277l41 205h277l51 266h-277l41 205h277l71 379h236l-72 -379h297l72 379h235l-71 -379h276l-41 -205h-276zM901 584l51 266h-297l-51 -266h297z" />
    <glyph glyph-name="dollar" unicode="$" 
d="M748 1450q98 -20 180 -65.5t114 -79.5l33 -35l-184 -195q-12 14 -33.5 34.5t-90.5 54.5t-142 34q-88 0 -141.5 -45t-53.5 -109q0 -72 72.5 -115.5t176 -73.5t208 -70t177.5 -132t73 -233q0 -164 -102.5 -282t-286.5 -154v-199h-267v192q-80 12 -153.5 40t-121.5 58.5
t-85 60.5t-53 48l-17 21l185 184q14 -16 39.5 -41.5t113.5 -68.5t184 -43q111 0 173.5 52t62.5 132q0 72 -72.5 116t-177 73.5t-208 69.5t-176.5 132t-73 233q0 147 102.5 262t276.5 146v197h267v-199z" />
    <glyph glyph-name="percent" unicode="%" horiz-adv-x="1669" 
d="M266 1126.5q0 -61.5 41 -102.5t102.5 -41t102.5 41t41 102.5t-41 102.5t-102.5 41t-102.5 -41t-41 -102.5zM256 0l901 1434h256l-901 -1434h-256zM758 1126.5q0 -133.5 -102.5 -236t-246 -102.5t-246 102.5t-102.5 236t102.5 235.5t246 102t246 -102t102.5 -235.5z
M1403 307.5q0 61.5 -41 102.5t-102.5 41t-102.5 -41t-41 -102.5t41 -102.5t102.5 -41t102.5 41t41 102.5zM911 307q0 133 102.5 235.5t246 102.5t246 -102.5t102.5 -235.5t-102.5 -235.5t-246 -102.5t-246 102.5t-102.5 235.5z" />
    <glyph glyph-name="ampersand" unicode="&#x26;" horiz-adv-x="1341" 
d="M1126 297q51 -82 123 -82l51 10v-235q-51 -31 -122 -31q-68 0 -132.5 36t-95.5 71l-28 36q-14 -16 -41 -39.5t-120 -63.5t-198 -40q-201 0 -325.5 110.5t-124.5 268.5q0 74 27.5 144.5t66.5 118.5t78 85t67 55l27 17q-20 20 -51 56t-82 130t-51 172q0 147 109.5 253
t268.5 106q166 0 272.5 -100.5t106.5 -248.5q0 -57 -24.5 -116.5t-58 -102.5t-68.5 -77.5t-60 -53.5l-24 -18l215 -266q61 92 61 215h256q0 -109 -30.5 -211.5t-61.5 -151.5zM573 205q55 0 106.5 20.5t74.5 40.5l24 21l-246 297q-16 -12 -39.5 -33t-63.5 -79t-40 -114
q0 -72 47 -112.5t137 -40.5zM696 1106q0 53 -34.5 88t-88.5 35q-61 0 -97 -34t-36 -89q0 -41 34 -92t67 -82l32 -31q14 12 35 33.5t54.5 76t33.5 95.5z" />
    <glyph glyph-name="quotesingle" unicode="'" horiz-adv-x="471" 
d="M358 1434v-471h-245v471h245z" />
    <glyph glyph-name="parenleft" unicode="(" horiz-adv-x="747" 
d="M420 512q0 -137 28.5 -276.5t69.5 -239.5t81 -181t69 -122l28 -41l-215 -123q-14 16 -36.5 46t-81 129t-102.5 205.5t-81 271.5t-37 331t35 329t84 275.5t99.5 201.5t84.5 132l35 45l215 -133q-10 -14 -29.5 -42t-66.5 -116t-84 -181t-66.5 -233.5t-29.5 -277.5z" />
    <glyph glyph-name="parenright" unicode=")" horiz-adv-x="747" 
d="M328 512q0 137 -29 275.5t-70 237.5t-80.5 178t-68.5 120l-29 39l215 133q14 -16 37 -46t81 -129t102 -205.5t81 -271.5t37 -331t-34.5 -329t-85 -275.5t-99.5 -201.5t-84 -132l-35 -45l-215 123q10 14 29.5 41.5t67 118t84 185.5t66.5 236.5t30 278.5z" />
    <glyph glyph-name="asterisk" unicode="*" horiz-adv-x="819" 
d="M410 932l-134 -195l-153 123l143 174l-215 62l62 184l215 -82l-21 236h205l-20 -236l215 82l61 -184l-215 -62l143 -174l-153 -123z" />
    <glyph glyph-name="plus" unicode="+" horiz-adv-x="1075" 
d="M655 123h-235v348h-348v256h348v348h235v-348h349v-256h-349v-348z" />
    <glyph glyph-name="comma" unicode="," horiz-adv-x="532" 
d="M215 297l225 -133l-266 -430l-184 92z" />
    <glyph glyph-name="hyphen" unicode="-" horiz-adv-x="880" 
d="M809 727v-246h-737v246h737z" />
    <glyph glyph-name="period" unicode="." horiz-adv-x="512" 
d="M92 133.5q0 61.5 48 107.5t116 46t116 -46t48 -107.5t-48 -107.5t-116 -46t-116 46t-48 107.5z" />
    <glyph glyph-name="slash" unicode="/" horiz-adv-x="993" 
d="M932 1454l-615 -1884h-256l615 1884h256z" />
    <glyph glyph-name="zero" unicode="0" horiz-adv-x="1454" 
d="M420 717q0 -225 91 -348t216 -123t216 123t91 348t-91 348t-216 123t-216 -123t-91 -348zM1341 717q0 -336 -179 -542t-435 -206t-435 206t-179 542t179 541.5t435 205.5t435 -205.5t179 -541.5z" />
    <glyph glyph-name="one" unicode="1" horiz-adv-x="819" 
d="M379 1434h256v-1434h-307v1044h-246v195q66 8 121 31.5t85.5 50.5t52 52.5t30.5 43.5z" />
    <glyph glyph-name="two" unicode="2" horiz-adv-x="1187" 
d="M1075 0h-1003q0 158 51 286t127 202.5t165 142t164.5 115t127 111t51.5 136.5q0 86 -53.5 135.5t-151.5 49.5q-78 0 -134.5 -44t-74.5 -87l-16 -43l-256 122q4 14 13 37t48 81.5t90 102.5t144.5 80.5t205.5 36.5q219 0 360.5 -133t141.5 -327q0 -109 -47 -198
t-123 -151.5t-155.5 -115t-162.5 -119t-126 -133.5h614v-287z" />
    <glyph glyph-name="three" unicode="3" horiz-adv-x="1177" 
d="M840 758q10 -4 27.5 -11.5t61.5 -36t77.5 -65.5t61.5 -102.5t28 -143.5q0 -176 -146.5 -303t-386.5 -127q-102 0 -196.5 23.5t-154.5 56.5t-105.5 65.5t-65.5 57.5l-21 23l185 194q4 -6 13 -16.5t41 -37t67.5 -47t91 -36.5t114.5 -16q119 0 182.5 52t63.5 132t-62.5 132
t-172.5 52h-154v256h143q90 0 142.5 48t52.5 126q0 72 -52 118t-143 46q-78 0 -146.5 -34t-98.5 -66l-31 -33l-184 184q6 8 18 22.5t57.5 52.5t97.5 65.5t138 51t180 23.5q217 0 349 -114.5t132 -284.5q0 -63 -21.5 -117.5t-51 -88.5t-59 -57.5t-52.5 -33.5z" />
    <glyph glyph-name="four" unicode="4" horiz-adv-x="1249" 
d="M1044 522h164v-266h-164v-256h-307v256h-676v307l625 871h358v-912zM737 522v553l-389 -553h389z" />
    <glyph glyph-name="five" unicode="5" horiz-adv-x="1269" 
d="M696 952q207 0 344.5 -137t137.5 -344q0 -217 -150.5 -359.5t-392.5 -142.5q-102 0 -195.5 23.5t-152 56.5t-102.5 65.5t-62 57.5l-21 23l185 194q14 -16 39.5 -39.5t111.5 -63.5t176 -40q115 0 180.5 62.5t65.5 162.5t-69.5 168t-176.5 68q-74 0 -132 -28t-81 -56
l-22 -29l-215 20l51 820h870v-267h-593l-21 -266q82 51 225 51z" />
    <glyph glyph-name="six" unicode="6" horiz-adv-x="1259" 
d="M676 973q193 0 342 -151.5t149 -350.5q0 -211 -153.5 -356.5t-389 -145.5t-389 145.5t-153.5 356.5q0 86 30.5 173t61.5 130l31 45l399 615h318l-308 -471q27 10 62 10zM870 471q0 100 -69.5 168t-176 68t-176 -68t-69.5 -168t69.5 -167.5t176 -67.5t176 67.5t69.5 167.5
z" />
    <glyph glyph-name="seven" unicode="7" horiz-adv-x="1095" 
d="M61 1434h983v-246l-563 -1188h-317l553 1157h-656v277z" />
    <glyph glyph-name="eight" unicode="8" horiz-adv-x="1249" 
d="M624.5 225q96.5 0 166 62.5t69.5 142.5t-69.5 142.5t-166 62.5t-166 -62.5t-69.5 -142.5t69.5 -142.5t166 -62.5zM625 881q82 0 133 47t51 116.5t-51 116.5t-133 47t-133.5 -47t-51.5 -116.5t51.5 -116.5t133.5 -47zM624.5 -31q-225.5 0 -374 136.5t-148.5 324.5
q0 66 22.5 126t53.5 99t62.5 68t54.5 43l22 12q-6 4 -17 11.5t-40 34t-50.5 57t-38.5 80t-17 104.5q0 160 135 279.5t335.5 119.5t336 -119.5t135.5 -279.5q0 -86 -41 -157.5t-82 -100.5l-41 -29q8 -4 22.5 -13t52 -41t65.5 -70t51.5 -98t23.5 -126q0 -188 -148.5 -324.5
t-374 -136.5z" />
    <glyph glyph-name="nine" unicode="9" horiz-adv-x="1259" 
d="M584 461q-193 0 -342.5 151.5t-149.5 350.5q0 211 153.5 356t389 145t389.5 -145t154 -356q0 -86 -31 -173.5t-62 -130.5l-30 -45l-400 -614h-317l307 471q-26 -10 -61 -10zM389 962.5q0 -100.5 69.5 -168t176 -67.5t176.5 67.5t70 168t-70 168t-176.5 67.5t-176 -67.5
t-69.5 -168z" />
    <glyph glyph-name="colon" unicode=":" horiz-adv-x="512" 
d="M92 133.5q0 61.5 48 107.5t116 46t116 -46t48 -107.5t-48 -107.5t-116 -46t-116 46t-48 107.5zM92 870.5q0 61.5 48 107.5t116 46t116 -46t48 -107.5t-48 -107.5t-116 -46t-116 46t-48 107.5z" />
    <glyph glyph-name="semicolon" unicode=";" horiz-adv-x="552" 
d="M133 870.5q0 61.5 48 107.5t116 46t116 -46t48 -107.5t-48 -107.5t-116 -46t-116 46t-48 107.5zM215 297l225 -133l-266 -430l-184 92z" />
    <glyph glyph-name="less" unicode="&#x3c;" horiz-adv-x="1044" 
d="M82 410v184l881 420v-266l-533 -246l533 -246v-266z" />
    <glyph glyph-name="equal" unicode="=" horiz-adv-x="1013" 
d="M932 522v-235h-850v235h850zM932 922v-236h-850v236h850z" />
    <glyph glyph-name="greater" unicode="&#x3e;" horiz-adv-x="1044" 
d="M963 594v-184l-881 -420v266l532 246l-532 246v266z" />
    <glyph glyph-name="question" unicode="?" horiz-adv-x="1126" 
d="M379 502q0 82 36 145.5t87 102t102 74.5t87 83t36 107q0 63 -51 108t-133 45q-86 0 -147.5 -41t-80.5 -82l-18 -40l-256 112q4 14 13 38t49 83t92.5 105.5t147.5 84t210 37.5q217 0 354 -120.5t137 -288.5q0 -104 -37.5 -185.5t-92 -131.5t-108.5 -94t-92 -103.5
t-38 -130.5h-277q-20 51 -20 92zM358 133.5q0 61.5 48.5 107.5t116 46t115.5 -46t48 -107.5t-48 -107.5t-115.5 -46t-116 46t-48.5 107.5z" />
    <glyph glyph-name="at" unicode="@" horiz-adv-x="1843" 
d="M911 686q-74 0 -124 -52t-50 -132t50.5 -132.5t123.5 -52.5q70 0 117 51.5t47 133.5t-47 133t-117 51zM881 881q59 0 107 -20.5t69 -41.5l18 -20v71h195v-450q0 -47 32.5 -80t79.5 -33q143 0 144 246q0 233 -173 398t-431 165q-246 0 -420 -176t-174 -428t174 -428
t420 -176q104 0 196 30.5t131 61.5l41 31l113 -144q-6 -6 -20.5 -18t-60.5 -42t-98.5 -53.5t-134 -42t-167.5 -18.5q-211 0 -395.5 109.5t-294 294t-109.5 395.5t109.5 395.5t294 294t395.5 109.5q342 0 575.5 -223.5t233.5 -534.5q0 -201 -98.5 -315.5t-250.5 -114.5
q-72 0 -131 30.5t-82 61.5l-22 31q-8 -14 -25.5 -35t-83 -54.5t-147.5 -33.5q-150 0 -254.5 107.5t-104.5 271.5q0 162 104 270.5t245 108.5z" />
    <glyph glyph-name="A" unicode="A" horiz-adv-x="1495" 
d="M922 604l-174 471l-175 -471h349zM1024 338h-553l-123 -338h-328l564 1434h327l564 -1434h-328z" />
    <glyph glyph-name="B" unicode="B" horiz-adv-x="1423" 
d="M834 0h-650v1434h615q195 0 322.5 -114t127.5 -265q0 -57 -16 -108.5t-41 -85.5t-49.5 -58.5t-40.5 -34.5l-17 -10q10 -4 25.5 -11.5t56.5 -37t72 -64.5t56.5 -95.5t25.5 -129.5q0 -172 -137 -296t-350 -124zM492 256h327q84 0 139.5 53t55.5 131t-55.5 131.5
t-139.5 53.5h-327v-369zM778 1178h-286v-308h286q76 0 120 42t44 112t-44 112t-120 42z" />
    <glyph glyph-name="C" unicode="C" horiz-adv-x="1546" 
d="M881 1464q113 0 215 -29.5t167.5 -71.5t116 -84t72.5 -71l23 -30l-195 -195q-6 8 -16.5 22.5t-47 49.5t-79.5 61.5t-113 49t-143 22.5q-201 0 -336 -135t-135 -336t135 -336t336 -135q78 0 149.5 21.5t118.5 51t83 59.5t52 52l16 21l185 -195q-8 -12 -24.5 -31.5t-73 -69
t-121 -87t-169 -68.5t-216.5 -31q-328 0 -553.5 219.5t-225.5 528.5t225.5 528t553.5 219z" />
    <glyph glyph-name="D" unicode="D" horiz-adv-x="1556" 
d="M184 1434h533q313 0 525 -208t212 -509t-212 -509t-525 -208h-533v1434zM717 1157h-225v-881h225q178 0 304 128t126 312.5t-123 312.5t-307 128z" />
    <glyph glyph-name="E" unicode="E" horiz-adv-x="1361" 
d="M492 276h768v-276h-1076v1434h1055v-277h-747v-287h583v-276h-583v-318z" />
    <glyph glyph-name="F" unicode="F" horiz-adv-x="1320" 
d="M184 1434h1055v-277h-747v-317h583v-277h-583v-563h-308v1434z" />
    <glyph glyph-name="G" unicode="G" horiz-adv-x="1658" 
d="M942 778h563v-532q-8 -10 -25.5 -29.5t-77 -67t-126 -84t-174 -66.5t-221.5 -30q-328 0 -553.5 219.5t-225.5 528.5t225.5 528t553.5 219q113 0 215 -29.5t167.5 -71.5t116 -84t72.5 -71l23 -30l-195 -195q-6 8 -16.5 22.5t-47 49.5t-79.5 61.5t-113 49t-143 22.5
q-201 0 -336 -135t-135 -336t135 -336t336 -135q96 0 175 28.5t111 57.5l31 26v195h-256v225z" />
    <glyph glyph-name="H" unicode="H" horiz-adv-x="1597" 
d="M1413 1434v-1434h-307v584h-614v-584h-308v1434h308v-574h614v574h307z" />
    <glyph glyph-name="I" unicode="I" horiz-adv-x="675" 
d="M184 0v1434h308v-1434h-308z" />
    <glyph glyph-name="J" unicode="J" horiz-adv-x="1054" 
d="M573 1434h308v-973q0 -219 -138.5 -355.5t-363.5 -136.5q-109 0 -204 44t-134 87l-41 43l184 185q6 -8 19.5 -22.5t59.5 -37t95 -22.5q100 0 157.5 57t57.5 158v973z" />
    <glyph glyph-name="K" unicode="K" horiz-adv-x="1454" 
d="M492 1434v-625l563 625h358l-532 -594l573 -840h-358l-420 614l-184 -204v-410h-308v1434h308z" />
    <glyph glyph-name="L" unicode="L" horiz-adv-x="1208" 
d="M1157 0h-973v1434h308v-1158h665v-276z" />
    <glyph glyph-name="M" unicode="M" horiz-adv-x="1904" 
d="M952 809l496 625h272v-1434h-307v956l-461 -587l-460 583v-952h-308v1434h277z" />
    <glyph glyph-name="N" unicode="N" horiz-adv-x="1648" 
d="M1157 1434h307v-1434h-266l-706 911v-911h-308v1434h267l706 -912v912z" />
    <glyph glyph-name="O" unicode="O" horiz-adv-x="1761" 
d="M420 716.5q0 -198.5 134 -334.5t326.5 -136t326.5 136t134 334.5t-134 335t-326.5 136.5t-326.5 -136.5t-134 -335zM102 717q0 309 225.5 528t553 219t553 -219t225.5 -528t-225.5 -528.5t-553 -219.5t-553 219.5t-225.5 528.5z" />
    <glyph glyph-name="P" unicode="P" horiz-adv-x="1392" 
d="M184 1434h604q221 0 366.5 -138.5t145.5 -343t-145 -343t-367 -138.5h-296v-471h-308v1434zM778 1157h-286v-409h286q92 0 153.5 59t61.5 145t-61.5 145.5t-153.5 59.5z" />
    <glyph glyph-name="Q" unicode="Q" horiz-adv-x="1771" 
d="M102 717q0 309 225.5 528t553 219t553 -219t225.5 -528q0 -129 -41 -244t-98.5 -185.5t-115.5 -123.5t-99 -76l-41 -22q4 -6 12 -16.5t39 -35t68.5 -44t103 -36t141.5 -16.5h41v-246h-61q-123 0 -231.5 31t-176 76t-119 90t-73.5 76l-21 30q-45 -6 -106 -6
q-328 0 -553.5 219.5t-225.5 528.5zM420 716.5q0 -198.5 134 -334.5t326.5 -136t326.5 136t134 334.5t-134 335t-326.5 136.5t-326.5 -136.5t-134 -335z" />
    <glyph glyph-name="R" unicode="R" horiz-adv-x="1454" 
d="M184 0v1434h635q213 0 352.5 -136.5t139.5 -334.5q0 -86 -27 -161t-63.5 -121t-74.5 -79t-65 -45l-26 -14l307 -543h-328l-276 502h-266v-502h-308zM1004 963q0 84 -55.5 139t-139.5 55h-317v-379h317q84 0 139.5 53.5t55.5 131.5z" />
    <glyph glyph-name="S" unicode="S" 
d="M809 420q0 72 -72.5 116t-177 73.5t-208 69.5t-176.5 132t-73 233q0 174 139.5 297t362.5 123q88 0 170 -20.5t134.5 -48t92 -56t56.5 -49.5l18 -20l-184 -195q-12 14 -33.5 34.5t-90.5 54.5t-142 34q-88 0 -141.5 -45t-53.5 -109q0 -72 72.5 -115.5t176 -73.5t208 -70
t177.5 -132t73 -233q0 -199 -144.5 -325t-398.5 -126q-100 0 -193.5 24.5t-154 58.5t-106.5 69t-66 59l-23 25l185 184q14 -16 39.5 -41.5t113.5 -68.5t184 -43q111 0 173.5 52t62.5 132z" />
    <glyph glyph-name="T" unicode="T" horiz-adv-x="1208" 
d="M41 1434h1126v-277h-409v-1157h-307v1157h-410v277z" />
    <glyph glyph-name="U" unicode="U" horiz-adv-x="1597" 
d="M799 246q131 0 224 97t93 241v850h307v-850q0 -262 -178 -438.5t-446.5 -176.5t-446.5 176.5t-178 438.5v850h307v-850q0 -143 93.5 -240.5t224.5 -97.5z" />
    <glyph glyph-name="V" unicode="V" horiz-adv-x="1474" 
d="M573 0l-532 1434h328l368 -1065l369 1065h328l-533 -1434h-328z" />
    <glyph glyph-name="W" unicode="W" horiz-adv-x="2211" 
d="M963 1434h286l297 -983l297 983h328l-471 -1434h-287l-307 963l-307 -963h-287l-471 1434h328l297 -983z" />
    <glyph glyph-name="X" unicode="X" horiz-adv-x="1433" 
d="M717 522l-348 -522h-349l502 748l-461 686h349l307 -461l307 461h348l-461 -686l502 -748h-348z" />
    <glyph glyph-name="Y" unicode="Y" horiz-adv-x="1372" 
d="M348 1434l338 -615l338 615h328l-512 -922v-512h-308v512l-512 922h328z" />
    <glyph glyph-name="Z" unicode="Z" horiz-adv-x="1331" 
d="M829 1157h-696v277h1075v-277l-727 -881h748v-276h-1127v276z" />
    <glyph glyph-name="bracketleft" unicode="[" horiz-adv-x="737" 
d="M430 1219v-1414h246v-235h-512v1884h512v-235h-246z" />
    <glyph glyph-name="backslash" unicode="\" horiz-adv-x="993" 
d="M676 -430l-615 1884h256l615 -1884h-256z" />
    <glyph glyph-name="bracketright" unicode="]" horiz-adv-x="737" 
d="M307 -195v1414h-246v235h512v-1884h-512v235h246z" />
    <glyph glyph-name="asciicircum" unicode="^" horiz-adv-x="880" 
d="M338 1434h205l276 -615h-235l-144 328l-143 -328h-236z" />
    <glyph glyph-name="underscore" unicode="_" horiz-adv-x="706" 
d="M727 -174v-256h-747v256h747z" />
    <glyph glyph-name="grave" unicode="`" horiz-adv-x="573" 
d="M348 1444l164 -307h-225l-226 307h287z" />
    <glyph glyph-name="a" unicode="a" horiz-adv-x="1095" 
d="M676 0v102q-12 -14 -33.5 -34.5t-93.5 -54t-150 -33.5q-150 0 -244 83.5t-94 202.5q0 123 79 205t218 107l318 57q0 63 -46 103t-128 40q-68 0 -124 -25.5t-79 -52.5l-23 -24l-153 153q6 8 16.5 21.5t47 46.5t79.5 58.5t113 47t143 21.5q190 0 310 -113.5t120 -285.5
v-625h-276zM471 205q94 0 149.5 59.5t55.5 165.5v31l-225 -41q-113 -18 -113 -113q0 -102 133 -102z" />
    <glyph glyph-name="b" unicode="b" horiz-adv-x="1269" 
d="M707 1024q195 0 338 -151.5t143 -370.5t-143.5 -370.5t-337.5 -151.5q-86 0 -161 35.5t-106 70.5l-30 37v-123h-277v1434h277v-553q4 6 12 15t35.5 33.5t59.5 44t83.5 35t106.5 15.5zM655.5 225q102.5 0 174 78t71.5 199t-71.5 198.5t-174 77.5t-174 -77.5t-71.5 -198.5
t71.5 -199t174 -78z" />
    <glyph glyph-name="c" unicode="c" horiz-adv-x="1075" 
d="M61 502q0 209 161 365.5t382 156.5q78 0 148.5 -21.5t115.5 -51t80 -59.5t51 -52l15 -21l-174 -174q-8 14 -26.5 37t-80 59.5t-129.5 36.5q-109 0 -187.5 -81t-78.5 -195.5t79 -195.5t187 -81q68 0 129.5 33t89.5 66l27 34l164 -174q-6 -8 -16.5 -22.5t-48.5 -49t-82 -61
t-114.5 -49t-148.5 -22.5q-221 0 -382 156.5t-161 365.5z" />
    <glyph glyph-name="d" unicode="d" horiz-adv-x="1269" 
d="M543 1024q86 0 160.5 -36t105.5 -70l31 -37v553h276v-1434h-276v123q-4 -6 -12.5 -15.5t-36 -34t-59.5 -44t-83 -34.5t-106 -15q-195 0 -338.5 151.5t-143.5 370.5t143.5 370.5t338.5 151.5zM594 225q102 0 174 78t72 199t-72 198.5t-174 77.5t-174 -77.5t-72 -198.5
t72 -199t174 -78z" />
    <glyph glyph-name="e" unicode="e" horiz-adv-x="1167" 
d="M1075 410h-727q16 -82 87 -138.5t179 -56.5q78 0 144.5 30.5t93.5 61.5l29 31l143 -184l-18 -18q-13 -13 -54 -43t-87 -53.5t-119.5 -41.5t-151.5 -18q-221 0 -377 153.5t-156 368.5t154 368.5t369 153.5t358 -143.5t143 -358.5zM584 788q-88 0 -149.5 -51t-86.5 -133
h461q-16 80 -76.5 132t-148.5 52z" />
    <glyph glyph-name="f" unicode="f" horiz-adv-x="747" 
d="M686 973v-246h-225v-727h-277v727h-143v246h143v133q0 348 318 348q45 0 91 -8t71 -16l22 -7v-235q-41 20 -102 20q-53 0 -88 -32.5t-35 -79.5v-123h225z" />
    <glyph glyph-name="g" unicode="g" 
d="M809 82v82q-4 -6 -12.5 -15.5t-36 -34t-59 -44t-83 -35t-106.5 -15.5q-172 0 -311.5 149.5t-139.5 352.5t139.5 352.5t311.5 149.5q86 0 161 -36t105 -70l31 -37v123h276v-922q0 -217 -151.5 -364.5t-380.5 -147.5q-86 0 -165 22.5t-131 53t-91 62.5t-55 54l-19 23
l174 164q10 -14 30.5 -37t92.5 -59.5t154 -36.5q123 0 194.5 71.5t71.5 194.5zM348 522.5q0 -106.5 65.5 -176.5t160 -70t165 72t70.5 174.5t-70.5 174t-165 71.5t-160 -69.5t-65.5 -176z" />
    <glyph glyph-name="h" unicode="h" 
d="M410 1434v-553q12 16 33.5 39.5t96 63.5t156.5 40q172 0 280.5 -119t108.5 -321v-584h-276v553q0 92 -54.5 148.5t-140.5 56.5q-94 0 -149 -61.5t-55 -174.5v-522h-277v1434h277z" />
    <glyph glyph-name="i" unicode="i" horiz-adv-x="563" 
d="M410 1004v-1004h-277v1004h277zM430 1290.5q0 -69.5 -44 -111.5t-120 -42q-70 0 -111.5 42t-41.5 111.5t42 111.5t111 42q76 0 120 -42t44 -111.5z" />
    <glyph glyph-name="j" unicode="j" horiz-adv-x="563" 
d="M133 -61v1065h277v-1086q0 -168 -86 -258t-242 -90q-45 0 -89 8t-65 16l-20 7v245q51 -20 102 -20q53 0 88 33t35 80zM430 1290.5q0 -69.5 -44 -111.5t-120 -42q-70 0 -111.5 42t-41.5 111.5t42 111.5t111 42q76 0 120 -42t44 -111.5z" />
    <glyph glyph-name="k" unicode="k" horiz-adv-x="1116" 
d="M532 389l-122 -143v-246h-277v1434h277v-840l358 410h317l-378 -431l399 -573h-307z" />
    <glyph glyph-name="l" unicode="l" horiz-adv-x="563" 
d="M410 1434v-1434h-277v1434h277z" />
    <glyph glyph-name="m" unicode="m" horiz-adv-x="1792" 
d="M1372 0v553q0 96 -46 150.5t-118 54.5q-80 0 -132 -62.5t-52 -173.5v-522h-276v553q0 96 -46.5 150.5t-117.5 54.5q-80 0 -132.5 -62.5t-52.5 -173.5v-522h-276v1004h276v-123q10 16 31 39.5t89.5 63.5t146.5 40q59 0 111 -18.5t83 -43t53.5 -50t30.5 -44.5l8 -18
q4 6 13.5 18.5t41 42t67.5 53t94.5 42t121.5 18.5q166 0 262.5 -111.5t96.5 -328.5v-584h-277z" />
    <glyph glyph-name="n" unicode="n" horiz-adv-x="1218" 
d="M399 1004v-123q12 16 34 39.5t96.5 63.5t156.5 40q172 0 280.5 -119t108.5 -321v-584h-276v553q0 92 -54.5 148.5t-140.5 56.5q-94 0 -149.5 -61.5t-55.5 -174.5v-522h-276v1004h276z" />
    <glyph glyph-name="o" unicode="o" horiz-adv-x="1208" 
d="M348 501.5q0 -112.5 73 -189t173 -76.5t173 76.5t73 189t-73 189.5t-173 77t-173 -77t-73 -189.5zM1126 502q0 -209 -158.5 -365.5t-373.5 -156.5t-374 156.5t-159 365.5t159 365.5t374 156.5t373.5 -156.5t158.5 -365.5z" />
    <glyph glyph-name="p" unicode="p" horiz-adv-x="1259" 
d="M696 -20q-86 0 -160.5 35.5t-105.5 70.5l-31 37v-553h-276v1434h276v-123q4 6 12.5 15t36 33.5t59.5 44t83 35t106 15.5q195 0 338.5 -151.5t143.5 -370.5t-143.5 -370.5t-338.5 -151.5zM645.5 778q-102.5 0 -174.5 -77.5t-72 -198.5t72 -199t174.5 -78t174 78t71.5 199
t-71.5 198.5t-174 77.5z" />
    <glyph glyph-name="q" unicode="q" horiz-adv-x="1259" 
d="M543 -20q-195 0 -338.5 151.5t-143.5 370.5t143.5 370.5t338.5 151.5q86 0 160.5 -36t105.5 -70l31 -37v123h276v-1434h-276v553q-4 -6 -12.5 -15.5t-36 -34t-59.5 -44t-83 -34.5t-106 -15zM594 778q-102 0 -174 -77.5t-72 -198.5t72 -199t174 -78t174 78t72 199
t-72 198.5t-174 77.5z" />
    <glyph glyph-name="r" unicode="r" horiz-adv-x="757" 
d="M727 1014v-277q-31 10 -92 11q-109 0 -172.5 -69t-63.5 -198v-481h-276v1004h276v-123q12 14 34 36.5t96.5 59.5t156.5 37h41z" />
    <glyph glyph-name="s" unicode="s" horiz-adv-x="931" 
d="M819 870l-143 -163q-6 8 -19.5 22t-56.5 36.5t-88 22.5q-57 0 -90 -24.5t-33 -56.5q0 -39 47 -65t114.5 -46.5t136.5 -49t116 -92t47 -157.5q0 -135 -106.5 -226t-292.5 -91q-80 0 -152 19t-117 46t-78.5 53.5t-48.5 44.5l-14 21l154 153q8 -12 25.5 -30.5t73.5 -50
t116 -31.5q66 0 99.5 25.5t33.5 66.5t-47 68.5t-116 48t-136.5 49.5t-114.5 90t-47 154q0 121 112.5 219t276.5 98q104 0 191.5 -39t121.5 -76z" />
    <glyph glyph-name="t" unicode="t" horiz-adv-x="829" 
d="M246 1116v184h246v-317h204v-246h-204v-399q0 -47 34.5 -80t87.5 -33q27 0 52.5 5.5t38.5 11.5l12 4v-236q-82 -31 -185 -30q-317 0 -317 348v409h-174v246h92q47 0 80 37t33 96z" />
    <glyph glyph-name="u" unicode="u" 
d="M799 0v102q-12 -14 -34 -34.5t-96.5 -54t-156.5 -33.5q-172 0 -280.5 115.5t-108.5 307.5v601h276v-574q0 -84 55.5 -139t139.5 -55q94 0 149.5 61t55.5 174v533h276v-1004h-276z" />
    <glyph glyph-name="v" unicode="v" horiz-adv-x="1064" 
d="M666 0h-287l-379 1004h287l235 -666l236 666h286z" />
    <glyph glyph-name="w" unicode="w" horiz-adv-x="1576" 
d="M676 1004h205l194 -605l195 605h286l-342 -1004h-241l-195 573l-194 -573h-242l-342 1004h287l194 -605z" />
    <glyph glyph-name="x" unicode="x" horiz-adv-x="1044" 
d="M512 317l-215 -317h-297l338 512l-318 492h308l184 -297l184 297h308l-318 -492l338 -512h-297z" />
    <glyph glyph-name="y" unicode="y" horiz-adv-x="1064" 
d="M358 -61l31 71l-389 994h287l235 -666l236 666h286l-399 -1065q-137 -369 -389 -369q-45 0 -89 8t-65 16l-20 7v245q41 -20 102 -20q125 0 174 113z" />
    <glyph glyph-name="z" unicode="z" horiz-adv-x="1024" 
d="M911 1004v-246l-491 -512h512v-246h-860v246l491 512h-471v246h819z" />
    <glyph glyph-name="braceleft" unicode="{" horiz-adv-x="808" 
d="M113 399v226q61 0 97 35.5t36 97.5v348q0 168 88 258t250 90h153v-246h-102q-53 0 -88 -35.5t-35 -93.5v-331q0 -57 -13.5 -102.5t-33 -69t-39.5 -40t-33 -20.5l-14 -4q6 -2 14 -5t32 -19.5t41 -40t31.5 -68.5t14.5 -103v-333q0 -57 35 -92t88 -35h102v-246h-153
q-162 0 -250 90t-88 258v348q0 61 -36 97t-97 36z" />
    <glyph glyph-name="bar" unicode="|" horiz-adv-x="768" 
d="M522 1454v-1884h-276v1884h276z" />
    <glyph glyph-name="braceright" unicode="}" horiz-adv-x="808" 
d="M696 625v-226q-61 0 -97 -35.5t-36 -97.5v-348q0 -168 -88 -258t-250 -90h-153v246h102q53 0 88 34.5t35 92.5v333q0 57 13.5 102.5t34 69t39.5 40t34 20.5l12 4q-6 2 -14 5t-32 19.5t-41 40t-31.5 68.5t-14.5 103v331q0 57 -35 93t-88 36h-102v246h153q162 0 250 -90
t88 -258v-348q0 -61 36 -97t97 -36z" />
    <glyph glyph-name="asciitilde" unicode="~" horiz-adv-x="1157" 
d="M410 553q-55 0 -101.5 -25.5t-64.5 -52.5l-19 -24l-164 112q4 8 10.5 22.5t33 52.5t58.5 65.5t87 51t119 23.5q104 0 211.5 -61.5t167.5 -61.5q55 0 101 26t64 52l19 25l164 -113q-4 -8 -10.5 -22.5t-33 -52.5t-58 -65.5t-87 -51t-119.5 -23.5q-104 0 -211.5 61.5
t-166.5 61.5z" />
    <glyph glyph-name="uni00A0" unicode="&#xa0;" horiz-adv-x="419" 
 />
    <glyph glyph-name="exclamdown" unicode="&#xa1;" horiz-adv-x="634" 
d="M205 594h225l51 -1024h-327zM154 870.5q0 61.5 48 107.5t115.5 46t115.5 -46t48 -107.5t-48 -107.5t-115.5 -46t-115.5 46t-48 107.5z" />
    <glyph glyph-name="cent" unicode="&#xa2;" horiz-adv-x="1044" 
d="M348 501.5q0 -112.5 77 -194.5t179 -82q63 0 115.5 27t73.5 53l20 27l170 -174q-12 -14 -33.5 -37t-93.5 -68t-149 -63v-205h-246v205q-174 55 -287 193.5t-113 318.5t113 317t287 185v204h246v-204q78 -18 144.5 -59.5t94.5 -72.5l27 -32l-164 -164q-6 12 -20.5 28.5
t-67.5 45t-117 28.5q-102 0 -179 -82t-77 -194.5z" />
    <glyph glyph-name="sterling" unicode="&#xa3;" horiz-adv-x="1198" 
d="M246 983q0 215 135 348t356 133q78 0 149.5 -20.5t119 -48t83 -56t52.5 -49.5l16 -20l-205 -195q-8 12 -23.5 28.5t-68.5 45.5t-112 29q-92 0 -154 -61.5t-62 -153.5v-175h359v-215h-359v-194q0 -33 -10 -60.5t-20 -39.5l-10 -13h655v-266h-1024v266q123 0 123 113v194
h-123v215h123v195z" />
    <glyph glyph-name="currency" unicode="&#xa4;" horiz-adv-x="1423" 
d="M553 788h287q84 0 139 53.5t55 131.5q0 84 -55 139t-139 55h-287v-379zM840 543h-287v-113h430v-246h-430v-184h-307v184h-154v246h154v113h-154v245h154v646h598q215 0 356 -131.5t141 -319.5t-138 -314t-363 -126z" />
    <glyph glyph-name="yen" unicode="&#xa5;" horiz-adv-x="1372" 
d="M1137 512h-297v-102h297v-215h-297v-195h-308v195h-296v215h296v102h-296v215h176l-392 707h328l338 -615l338 615h328l-394 -707h179v-215z" />
    <glyph glyph-name="brokenbar" unicode="&#xa6;" horiz-adv-x="768" 
d="M246 348h276v-778h-276v778zM522 676h-276v778h276v-778z" />
    <glyph glyph-name="section" unicode="&#xa7;" horiz-adv-x="1116" 
d="M942 1311l-143 -154q-72 72 -174 72q-154 0 -154 -103q0 -45 56.5 -79.5t135 -65.5t158.5 -71t136.5 -115.5t56.5 -180.5q0 -51 -19.5 -98t-46 -75.5t-53.5 -51t-47 -33.5l-19 -8q6 -4 16.5 -10t37 -28.5t47 -47t37 -65.5t16.5 -84q0 -145 -121 -247t-325 -102
q-84 0 -159 21.5t-121 51.5t-81 59.5t-49 50.5l-14 22l153 154q4 -4 10.5 -13.5t29 -30t47 -36.5t65.5 -29.5t84 -13.5q174 0 174 123q0 49 -59.5 87t-143.5 68.5t-168 70.5t-143.5 116t-59.5 180q0 51 19.5 98.5t46.5 76t53.5 51t44.5 30.5l21 10q-14 10 -35 28.5t-54.5 80
t-33.5 127.5q0 129 114.5 223t305.5 94q70 0 131 -15t101 -37.5t69.5 -46.5t44.5 -38zM748 604q0 63 -67 112.5t-132 65.5l-68 17q-4 0 -12 -2t-27.5 -12.5t-34 -25t-26.5 -42t-12 -62.5q0 -63 66.5 -112t133.5 -66l66 -16q4 2 12 4t27.5 13t34 26.5t27 42t12.5 57.5z" />
    <glyph glyph-name="dieresis" unicode="&#xa8;" horiz-adv-x="880" 
d="M61 1300.5q0 61.5 46.5 107.5t107.5 46t107.5 -46t46.5 -107.5t-46.5 -107.5t-107.5 -46t-107.5 46t-46.5 107.5zM512 1300.5q0 61.5 46 107.5t107.5 46t107.5 -46t46 -107.5t-46 -107.5t-107.5 -46t-107.5 46t-46 107.5z" />
    <glyph glyph-name="copyright" unicode="&#xa9;" horiz-adv-x="1781" 
d="M1475 716.5q0 237.5 -173.5 410.5t-411 173t-410.5 -173t-173 -410.5t173 -410.5t410.5 -173t411 173t173.5 410.5zM1659 717q0 -309 -223.5 -528.5t-545 -219.5t-544.5 219.5t-223 528.5t223 528t544.5 219t545 -219t223.5 -528zM696 717q0 -86 66.5 -150.5t159.5 -64.5
q37 0 69.5 11t53 27.5t35 34t20.5 27.5l6 12l133 -122q-4 -6 -12 -18.5t-39 -42.5t-66 -53.5t-91 -42t-120 -18.5q-176 0 -292.5 115t-116.5 285t116.5 284.5t292.5 114.5q63 0 118.5 -16.5t90.5 -41t60.5 -49t36.5 -40.5l12 -17l-123 -123q-6 12 -18.5 28.5t-59.5 45.5
t-106 29q-92 0 -159 -64.5t-67 -150.5z" />
    <glyph glyph-name="ordfeminine" unicode="&#xaa;" horiz-adv-x="747" 
d="M287 788q-98 0 -156.5 54.5t-58.5 140.5q0 70 57 125t152 70l200 30q0 33 -30.5 57.5t-81.5 24.5q-45 0 -84 -15t-56 -30l-14 -16l-113 102q4 4 10.5 13.5t31 30t54 36.5t78 29.5t103.5 13.5q129 0 202.5 -71.5t73.5 -194.5v-379h-174v72q-6 -10 -20.5 -25.5t-64.5 -41.5
t-109 -26zM481 1096l-153 -31q-31 -6 -51.5 -27.5t-20.5 -44.5q0 -25 22.5 -43t59.5 -18q53 0 98 45t45 98v21z" />
    <glyph glyph-name="guillemotleft" unicode="&#xab;" horiz-adv-x="1126" 
d="M604 850l-256 -358l256 -359h-266l-256 359l256 358h266zM1044 850l-256 -358l256 -359h-266l-256 359l256 358h266z" />
    <glyph glyph-name="logicalnot" unicode="&#xac;" horiz-adv-x="972" 
d="M901 840v-506h-256v260h-573v246h829z" />
    <glyph glyph-name="uni00AD" unicode="&#xad;" horiz-adv-x="880" 
d="M809 727v-246h-737v246h737z" />
    <glyph glyph-name="registered" unicode="&#xae;" horiz-adv-x="1781" 
d="M1075 635l174 -307h-205l-143 266h-102v-266h-195v778h338q113 0 195 -77t82 -179q0 -74 -36 -127t-73 -72zM799 932v-164h133q82 0 82 82t-82 82h-133zM1475 716.5q0 237.5 -173.5 410.5t-411 173t-410.5 -173t-173 -410.5t173 -410.5t410.5 -173t411 173t173.5 410.5z
M1659 717q0 -309 -223.5 -528.5t-545 -219.5t-544.5 219.5t-223 528.5t223 528t544.5 219t545 -219t223.5 -528z" />
    <glyph glyph-name="macron" unicode="&#xaf;" horiz-adv-x="778" 
d="M717 1464v-204h-656v204h656z" />
    <glyph glyph-name="degree" unicode="&#xb0;" horiz-adv-x="778" 
d="M266 1146.5q0 -61.5 34 -97t89 -35.5t89 35.5t34 97t-34 97.5t-89 36t-89 -36t-34 -97.5zM707 1147q0 -123 -94.5 -215t-223.5 -92t-223 92t-94 215t94 215t223 92t223.5 -92t94.5 -215z" />
    <glyph glyph-name="plusminus" unicode="&#xb1;" horiz-adv-x="1075" 
d="M72 0v236h932v-236h-932zM655 348h-235v328h-348v256h348v328h235v-328h349v-256h-349v-328z" />
    <glyph glyph-name="uni00B2" unicode="&#xb2;" horiz-adv-x="675" 
d="M604 1413q0 -63 -34.5 -114.5t-76.5 -79t-96.5 -62.5t-79.5 -61h277v-185h-522q0 94 33.5 166t82 113t96.5 73.5t81.5 66.5t33.5 73q0 31 -22.5 51.5t-59.5 20.5q-27 0 -52 -20.5t-38 -41.5l-12 -20l-154 53q2 8 7.5 21.5t26 49t48 62.5t79.5 48.5t116 21.5
q121 0 193.5 -67t72.5 -169z" />
    <glyph glyph-name="uni00B3" unicode="&#xb3;" horiz-adv-x="686" 
d="M502 1300q4 -2 12 -5t27.5 -17t34 -32.5t26.5 -50.5t12 -69q0 -96 -74.5 -160.5t-201.5 -64.5q-59 0 -111.5 13.5t-83 33t-53 40t-31.5 32.5l-8 14l113 113q6 -8 17.5 -22.5t52 -37t88.5 -22.5q98 0 98 72q0 82 -113 82h-71v153h71q82 0 82 51q0 61 -82 62
q-33 0 -65.5 -17.5t-48.5 -35.5l-19 -19l-102 113q4 4 10 13t29.5 29.5t51 37t73 30t94.5 13.5q117 0 190.5 -61.5t73.5 -143.5q0 -45 -22.5 -81t-47.5 -48z" />
    <glyph glyph-name="acute" unicode="&#xb4;" horiz-adv-x="573" 
d="M61 1137l164 307h287l-225 -307h-226z" />
    <glyph glyph-name="mu" unicode="&#xb5;" horiz-adv-x="1218" 
d="M123 -430v1434h276v-564q0 -90 53.5 -147t131.5 -57q88 0 141 61t53 174v533h277v-707q0 -31 20.5 -51.5t50.5 -20.5l41 11v-236q-41 -20 -102 -20q-90 0 -151.5 38.5t-77.5 75.5l-17 39l-11 -16q-7 -11 -36 -37.5t-61.5 -47t-89 -36.5t-119.5 -16q-27 0 -52.5 5
t-37.5 11l-13 4v-430h-276z" />
    <glyph glyph-name="paragraph" unicode="&#xb6;" horiz-adv-x="1249" 
d="M430 -205v901q-145 0 -257 112t-112 257t112 257t257 112h666v-1639h-246v1372h-174v-1372h-246z" />
    <glyph glyph-name="periodcentered" unicode="&#xb7;" horiz-adv-x="409" 
d="M41 501.5q0 61.5 48 107.5t115.5 46t116 -46t48.5 -107.5t-48.5 -107.5t-116 -46t-115.5 46t-48 107.5z" />
    <glyph glyph-name="cedilla" unicode="&#xb8;" horiz-adv-x="573" 
d="M256 41h143l-71 -143q8 0 20 -1t44 -10.5t56.5 -26t44 -52t19.5 -84.5q0 -86 -60.5 -140.5t-164.5 -54.5q-61 0 -117.5 22.5t-83.5 47.5l-25 22l62 113q61 -51 143 -51q72 0 72 51t-72 51l-51 -10l-51 61z" />
    <glyph glyph-name="uni00B9" unicode="&#xb9;" horiz-adv-x="471" 
d="M205 1638h164v-727h-195v482h-123v153q63 6 103.5 34.5t50.5 57.5z" />
    <glyph glyph-name="ordmasculine" unicode="&#xba;" horiz-adv-x="778" 
d="M246 1116.5q0 -67.5 41 -110.5t102.5 -43t102 43t40.5 110.5t-40.5 110.5t-102 43t-102.5 -43t-41 -110.5zM727 1116q0 -137 -99.5 -237.5t-238.5 -100.5t-238.5 100.5t-99.5 237.5t99.5 237.5t238.5 100.5t238.5 -100.5t99.5 -237.5z" />
    <glyph glyph-name="guillemotright" unicode="&#xbb;" horiz-adv-x="1126" 
d="M778 492l-256 358h266l256 -358l-256 -359h-266zM338 492l-256 358h266l256 -358l-256 -359h-266z" />
    <glyph glyph-name="onequarter" unicode="&#xbc;" horiz-adv-x="1443" 
d="M133 0l891 1434h256l-891 -1434h-256zM225 1434h164v-727h-194v481h-123v153q63 6 103 35t50 58zM1321 727v-420h72v-174h-72v-133h-195v133h-327v174l317 420h205zM993 307h133v174z" />
    <glyph glyph-name="onehalf" unicode="&#xbd;" horiz-adv-x="1525" 
d="M133 0l891 1434h256l-891 -1434h-256zM225 1434h164v-727h-194v481h-123v153q63 6 103 35t50 58zM1454 502q0 -63 -35 -114.5t-77 -79t-96 -62.5t-79 -62h277v-184h-522q0 94 33.5 166t81.5 112.5t96.5 73.5t82 67t33.5 73q0 31 -22.5 51t-59.5 20q-27 0 -52 -20.5
t-38 -40.5l-12 -21l-154 54q2 8 7.5 21t26 49t48 62.5t79.5 48t116 21.5q121 0 193.5 -66.5t72.5 -168.5z" />
    <glyph glyph-name="threequarters" unicode="&#xbe;" horiz-adv-x="1566" 
d="M256 0l891 1434h256l-891 -1434h-256zM1444 727v-420h72v-174h-72v-133h-195v133h-327v174l317 420h205zM1116 307h133v174zM492 1096q4 -2 12 -5.5t27.5 -17.5t34 -32.5t26.5 -50.5t12 -68q0 -96 -74.5 -161t-201.5 -65q-59 0 -111.5 13.5t-83.5 33t-53.5 40t-30.5 32.5
l-8 14l113 113q6 -8 17 -22.5t52 -37t88 -22.5q98 0 99 72q0 82 -113 82h-72v153h72q82 0 82 52q0 61 -82 61q-33 0 -65.5 -17.5t-51.5 -35.5l-16 -19l-103 113q4 4 10.5 13t30 29.5t51 37t72.5 30t94 13.5q117 0 191 -61.5t74 -143.5q0 -45 -23.5 -81t-46.5 -48z" />
    <glyph glyph-name="questiondown" unicode="&#xbf;" horiz-adv-x="972" 
d="M717 502q0 -82 -36 -145.5t-87 -102.5t-102.5 -75t-87 -83t-35.5 -106q0 -63 51 -108.5t133 -45.5q86 0 147.5 41t79.5 82l19 41l256 -113q-4 -14 -13.5 -37.5t-49.5 -83t-92 -105.5t-147.5 -84t-209.5 -38q-217 0 -354.5 121t-137.5 289q0 104 38 185t92.5 131t108.5 94
t92 103.5t38 131.5h276q21 -51 21 -92zM737 870.5q0 -61.5 -48 -107.5t-115.5 -46t-115.5 46t-48 107.5t48 107.5t115.5 46t115.5 -46t48 -107.5z" />
    <glyph glyph-name="Agrave" unicode="&#xc0;" horiz-adv-x="1495" 
d="M922 604l-174 471l-175 -471h349zM1024 338h-553l-123 -338h-328l564 1434h327l564 -1434h-328zM686 1915l164 -307h-225l-226 307h287z" />
    <glyph glyph-name="Aacute" unicode="&#xc1;" horiz-adv-x="1495" 
d="M922 604l-174 471l-175 -471h349zM1024 338h-553l-123 -338h-328l564 1434h327l564 -1434h-328zM645 1608l164 307h287l-226 -307h-225z" />
    <glyph glyph-name="Acircumflex" unicode="&#xc2;" horiz-adv-x="1495" 
d="M922 604l-174 471l-175 -471h349zM1024 338h-553l-123 -338h-328l564 1434h327l564 -1434h-328zM860 1915l246 -307h-246l-123 164l-123 -164h-245l245 307h246z" />
    <glyph glyph-name="Atilde" unicode="&#xc3;" horiz-adv-x="1495" 
d="M922 604l-174 471l-175 -471h349zM1024 338h-553l-123 -338h-328l564 1434h327l564 -1434h-328zM891 1597q-78 0 -152.5 51.5t-113.5 51.5q-72 0 -72 -103h-174q0 156 59.5 232t159.5 76q59 0 107.5 -29t85 -56.5t69.5 -27.5q72 0 72 113h174q0 -154 -58.5 -231
t-156.5 -77z" />
    <glyph glyph-name="Adieresis" unicode="&#xc4;" horiz-adv-x="1495" 
d="M922 604l-174 471l-175 -471h349zM1024 338h-553l-123 -338h-328l564 1434h327l564 -1434h-328zM379 1751q0 61 46 107.5t107.5 46.5t107.5 -46.5t46 -107.5t-46 -107.5t-107.5 -46.5t-107.5 46.5t-46 107.5zM829 1751q0 61 46.5 107.5t107.5 46.5t107.5 -46.5
t46.5 -107.5t-46.5 -107.5t-107.5 -46.5t-107.5 46.5t-46.5 107.5z" />
    <glyph glyph-name="Aring" unicode="&#xc5;" horiz-adv-x="1495" 
d="M922 604l-174 471l-175 -471h349zM1024 338h-553l-123 -338h-328l564 1434h327l564 -1434h-328zM676 1771.5q0 -81.5 82 -81.5t82 81.5t-82 81.5t-82 -81.5zM993 1771.5q0 -92.5 -68.5 -159t-167 -66.5t-167 66.5t-68.5 159t68.5 159t167 66.5t167 -66.5t68.5 -159z" />
    <glyph glyph-name="AE" unicode="&#xc6;" horiz-adv-x="2048" 
d="M-61 0l798 1434h1198v-267h-675v-307h512v-256h-512v-338h696v-266h-1004v348h-501l-185 -348h-327zM901 1167l-307 -553h358v553h-51z" />
    <glyph glyph-name="Ccedilla" unicode="&#xc7;" horiz-adv-x="1546" 
d="M881 1464q113 0 215 -29.5t167.5 -71.5t116 -84t72.5 -71l23 -30l-195 -195q-6 8 -16.5 22.5t-47 49.5t-79.5 61.5t-113 49t-143 22.5q-201 0 -336 -135t-135 -336t135 -336t336 -135q78 0 149.5 21.5t118.5 51t83 59.5t52 52l16 21l185 -195q-8 -10 -23.5 -28.5
t-69 -65.5t-113.5 -84t-158.5 -70t-202.5 -37l-37 -73q8 0 20 -1t44 -10.5t56.5 -26t44 -52t19.5 -84.5q0 -86 -60.5 -140.5t-164.5 -54.5q-61 0 -117.5 22.5t-83.5 47.5l-25 22l62 113q61 -51 143 -51q72 0 72 51t-72 51l-51 -10l-51 61l61 139q-291 35 -483.5 246
t-192.5 496q0 309 225.5 528t553.5 219z" />
    <glyph glyph-name="Egrave" unicode="&#xc8;" horiz-adv-x="1361" 
d="M492 276h768v-276h-1076v1434h1055v-277h-747v-287h583v-276h-583v-318zM686 1915l164 -307h-225l-226 307h287z" />
    <glyph glyph-name="Eacute" unicode="&#xc9;" horiz-adv-x="1361" 
d="M492 276h768v-276h-1076v1434h1055v-277h-747v-287h583v-276h-583v-318zM604 1608l164 307h287l-226 -307h-225z" />
    <glyph glyph-name="Ecircumflex" unicode="&#xca;" horiz-adv-x="1361" 
d="M492 276h768v-276h-1076v1434h1055v-277h-747v-287h583v-276h-583v-318zM829 1915l246 -307h-246l-122 164l-123 -164h-246l246 307h245z" />
    <glyph glyph-name="Edieresis" unicode="&#xcb;" horiz-adv-x="1361" 
d="M492 276h768v-276h-1076v1434h1055v-277h-747v-287h583v-276h-583v-318zM348 1751q0 61 46 107.5t107.5 46.5t107.5 -46.5t46 -107.5t-46 -107.5t-107.5 -46.5t-107.5 46.5t-46 107.5zM799 1751q0 61 46 107.5t107.5 46.5t107.5 -46.5t46 -107.5t-46 -107.5t-107.5 -46.5
t-107.5 46.5t-46 107.5z" />
    <glyph glyph-name="Igrave" unicode="&#xcc;" horiz-adv-x="675" 
d="M184 0v1434h308v-1434h-308zM287 1915l164 -307h-226l-225 307h287z" />
    <glyph glyph-name="Iacute" unicode="&#xcd;" horiz-adv-x="675" 
d="M184 0v1434h308v-1434h-308zM225 1608l164 307h287l-225 -307h-226z" />
    <glyph glyph-name="Icircumflex" unicode="&#xce;" horiz-adv-x="675" 
d="M184 0v1434h308v-1434h-308zM459 1915l246 -307h-246l-123 164l-123 -164h-246l246 307h246z" />
    <glyph glyph-name="Idieresis" unicode="&#xcf;" horiz-adv-x="675" 
d="M184 0v1434h308v-1434h-308zM-41 1751q0 61 46 107.5t107.5 46.5t107.5 -46.5t46 -107.5t-46 -107.5t-107.5 -46.5t-107.5 46.5t-46 107.5zM410 1751q0 61 46 107.5t107.5 46.5t107.5 -46.5t46 -107.5t-46 -107.5t-107.5 -46.5t-107.5 46.5t-46 107.5z" />
    <glyph glyph-name="Eth" unicode="&#xd0;" horiz-adv-x="1597" 
d="M225 1434h533q313 0 525 -208t212 -509t-212 -509t-525 -208h-533v594h-174v246h174v594zM758 1157h-226v-317h277v-246h-277v-318h226q178 0 304 128t126 312.5t-123 312.5t-307 128z" />
    <glyph glyph-name="Ntilde" unicode="&#xd1;" horiz-adv-x="1648" 
d="M1157 1434h307v-1434h-266l-706 911v-911h-308v1434h267l706 -912v912zM973 1597q-78 0 -153 51.5t-113 51.5q-72 0 -72 -103h-174q0 156 59.5 232t159.5 76q59 0 107.5 -29t85 -56.5t69.5 -27.5q72 0 72 113h174q0 -154 -58.5 -231t-156.5 -77z" />
    <glyph glyph-name="Ograve" unicode="&#xd2;" horiz-adv-x="1761" 
d="M420 716.5q0 -198.5 134 -334.5t326.5 -136t326.5 136t134 334.5t-134 335t-326.5 136.5t-326.5 -136.5t-134 -335zM102 717q0 309 225.5 528t553 219t553 -219t225.5 -528t-225.5 -528.5t-553 -219.5t-553 219.5t-225.5 528.5zM829 1915l164 -307h-225l-225 307h286z
" />
    <glyph glyph-name="Oacute" unicode="&#xd3;" horiz-adv-x="1761" 
d="M420 716.5q0 -198.5 134 -334.5t326.5 -136t326.5 136t134 334.5t-134 335t-326.5 136.5t-326.5 -136.5t-134 -335zM102 717q0 309 225.5 528t553 219t553 -219t225.5 -528t-225.5 -528.5t-553 -219.5t-553 219.5t-225.5 528.5zM778 1608l164 307h287l-225 -307h-226z
" />
    <glyph glyph-name="Ocircumflex" unicode="&#xd4;" horiz-adv-x="1761" 
d="M420 716.5q0 -198.5 134 -334.5t326.5 -136t326.5 136t134 334.5t-134 335t-326.5 136.5t-326.5 -136.5t-134 -335zM102 717q0 309 225.5 528t553 219t553 -219t225.5 -528t-225.5 -528.5t-553 -219.5t-553 219.5t-225.5 528.5zM993 1915l246 -307h-246l-123 164
l-122 -164h-246l246 307h245z" />
    <glyph glyph-name="Otilde" unicode="&#xd5;" horiz-adv-x="1761" 
d="M420 716.5q0 -198.5 134 -334.5t326.5 -136t326.5 136t134 334.5t-134 335t-326.5 136.5t-326.5 -136.5t-134 -335zM102 717q0 309 225.5 528t553 219t553 -219t225.5 -528t-225.5 -528.5t-553 -219.5t-553 219.5t-225.5 528.5zM1034 1597q-78 0 -152.5 51.5t-113.5 51.5
q-72 0 -72 -103h-174q0 156 59.5 232t159.5 76q59 0 107.5 -29t85.5 -56.5t70 -27.5q72 0 71 113h174q0 -154 -58.5 -231t-156.5 -77z" />
    <glyph glyph-name="Odieresis" unicode="&#xd6;" horiz-adv-x="1761" 
d="M420 716.5q0 -198.5 134 -334.5t326.5 -136t326.5 136t134 334.5t-134 335t-326.5 136.5t-326.5 -136.5t-134 -335zM102 717q0 309 225.5 528t553 219t553 -219t225.5 -528t-225.5 -528.5t-553 -219.5t-553 219.5t-225.5 528.5zM502 1751q0 61 46 107.5t107.5 46.5
t107.5 -46.5t46 -107.5t-46 -107.5t-107.5 -46.5t-107.5 46.5t-46 107.5zM952 1751q0 61 46 107.5t107.5 46.5t108 -46.5t46.5 -107.5t-46.5 -107.5t-108 -46.5t-107.5 46.5t-46 107.5z" />
    <glyph glyph-name="multiply" unicode="&#xd7;" horiz-adv-x="1003" 
d="M666 635l266 -266l-164 -164l-266 266l-266 -266l-164 164l266 266l-266 266l164 164l266 -266l266 266l164 -164z" />
    <glyph glyph-name="Oslash" unicode="&#xd8;" horiz-adv-x="1761" 
d="M481 481l645 635q-102 72 -245 72q-193 0 -327 -136.5t-134 -334.5q0 -68 15.5 -127.5t31.5 -83.5zM1341 717q0 68 -15 127t-32 84l-14 24l-645 -635q102 -72 246 -71q193 0 326.5 136t133.5 335zM1659 717q0 -309 -225.5 -528.5t-552.5 -219.5q-123 0 -238 36t-168 73
l-55 35l-174 -174l-164 163l174 174q-6 6 -16.5 19.5t-37 56.5t-47 90t-37 122t-16.5 153q0 309 225.5 528t553.5 219q123 0 237.5 -35.5t167.5 -72.5l55 -35l175 174l163 -164l-174 -174q6 -6 16.5 -19.5t37 -56.5t47 -90t37 -121.5t16.5 -152.5z" />
    <glyph glyph-name="Ugrave" unicode="&#xd9;" horiz-adv-x="1597" 
d="M799 246q131 0 224 97t93 241v850h307v-850q0 -262 -178 -438.5t-446.5 -176.5t-446.5 176.5t-178 438.5v850h307v-850q0 -143 93.5 -240.5t224.5 -97.5zM778 1915l164 -307h-225l-225 307h286z" />
    <glyph glyph-name="Uacute" unicode="&#xda;" horiz-adv-x="1597" 
d="M799 246q131 0 224 97t93 241v850h307v-850q0 -262 -178 -438.5t-446.5 -176.5t-446.5 176.5t-178 438.5v850h307v-850q0 -143 93.5 -240.5t224.5 -97.5zM686 1608l164 307h287l-226 -307h-225z" />
    <glyph glyph-name="Ucircumflex" unicode="&#xdb;" horiz-adv-x="1597" 
d="M799 246q131 0 224 97t93 241v850h307v-850q0 -262 -178 -438.5t-446.5 -176.5t-446.5 176.5t-178 438.5v850h307v-850q0 -143 93.5 -240.5t224.5 -97.5zM922 1915l245 -307h-245l-123 164l-123 -164h-246l246 307h246z" />
    <glyph glyph-name="Udieresis" unicode="&#xdc;" horiz-adv-x="1597" 
d="M799 246q131 0 224 97t93 241v850h307v-850q0 -262 -178 -438.5t-446.5 -176.5t-446.5 176.5t-178 438.5v850h307v-850q0 -143 93.5 -240.5t224.5 -97.5zM430 1751q0 61 46 107.5t107.5 46.5t107.5 -46.5t46 -107.5t-46 -107.5t-107.5 -46.5t-107.5 46.5t-46 107.5z
M881 1751q0 61 46 107.5t107.5 46.5t107.5 -46.5t46 -107.5t-46 -107.5t-107.5 -46.5t-107.5 46.5t-46 107.5z" />
    <glyph glyph-name="Yacute" unicode="&#xdd;" horiz-adv-x="1372" 
d="M348 1434l338 -615l338 615h328l-512 -922v-512h-308v512l-512 922h328zM584 1608l164 307h286l-225 -307h-225z" />
    <glyph glyph-name="Thorn" unicode="&#xde;" horiz-adv-x="1372" 
d="M492 1321h143q279 0 462 -171t183 -412.5t-183.5 -412.5t-461.5 -171h-143v-195h-308v1516h308v-154zM492 1055v-635h112q180 0 274.5 84t94.5 233.5t-94.5 233.5t-274.5 84h-112z" />
    <glyph glyph-name="germandbls" unicode="&#xdf;" horiz-adv-x="1249" 
d="M901 788l27 -11q18 -7 62 -37.5t78 -67.5t61.5 -102.5t27.5 -139.5q0 -180 -136 -305t-351 -125h-97v266h103q82 0 138 52.5t56 121.5q0 78 -55 131.5t-139 53.5h-103v256h21q82 0 133 45t51 108q0 70 -54 122t-130 52q-78 0 -131 -55t-53 -139v-1014h-277v1014
q0 195 129 317.5t342 122.5q195 0 323 -115.5t128 -273.5q0 -55 -15.5 -103.5t-38 -79t-46 -53t-37.5 -30.5z" />
    <glyph glyph-name="agrave" unicode="&#xe0;" horiz-adv-x="1095" 
d="M676 0v102q-12 -14 -33.5 -34.5t-93.5 -54t-150 -33.5q-150 0 -244 83.5t-94 202.5q0 123 79 205t218 107l318 57q0 63 -46 103t-128 40q-68 0 -124 -25.5t-79 -52.5l-23 -24l-153 153q6 8 16.5 21.5t47 46.5t79.5 58.5t113 47t143 21.5q190 0 310 -113.5t120 -285.5
v-625h-276zM471 205q94 0 149.5 59.5t55.5 165.5v31l-225 -41q-113 -18 -113 -113q0 -102 133 -102zM512 1444l164 -307h-225l-226 307h287z" />
    <glyph glyph-name="aacute" unicode="&#xe1;" horiz-adv-x="1095" 
d="M676 0v102q-12 -14 -33.5 -34.5t-93.5 -54t-150 -33.5q-150 0 -244 83.5t-94 202.5q0 123 79 205t218 107l318 57q0 63 -46 103t-128 40q-68 0 -124 -25.5t-79 -52.5l-23 -24l-153 153q6 8 16.5 21.5t47 46.5t79.5 58.5t113 47t143 21.5q190 0 310 -113.5t120 -285.5
v-625h-276zM471 205q94 0 149.5 59.5t55.5 165.5v31l-225 -41q-113 -18 -113 -113q0 -102 133 -102zM440 1137l164 307h287l-225 -307h-226z" />
    <glyph glyph-name="acircumflex" unicode="&#xe2;" horiz-adv-x="1095" 
d="M676 0v102q-12 -14 -33.5 -34.5t-93.5 -54t-150 -33.5q-150 0 -244 83.5t-94 202.5q0 123 79 205t218 107l318 57q0 63 -46 103t-128 40q-68 0 -124 -25.5t-79 -52.5l-23 -24l-153 153q6 8 16.5 21.5t47 46.5t79.5 58.5t113 47t143 21.5q190 0 310 -113.5t120 -285.5
v-625h-276zM471 205q94 0 149.5 59.5t55.5 165.5v31l-225 -41q-113 -18 -113 -113q0 -102 133 -102zM676 1444l246 -307h-246l-123 163l-123 -163h-246l246 307h246z" />
    <glyph glyph-name="atilde" unicode="&#xe3;" horiz-adv-x="1095" 
d="M676 0v102q-12 -14 -33.5 -34.5t-93.5 -54t-150 -33.5q-150 0 -244 83.5t-94 202.5q0 123 79 205t218 107l318 57q0 63 -46 103t-128 40q-68 0 -124 -25.5t-79 -52.5l-23 -24l-153 153q6 8 16.5 21.5t47 46.5t79.5 58.5t113 47t143 21.5q190 0 310 -113.5t120 -285.5
v-625h-276zM471 205q94 0 149.5 59.5t55.5 165.5v31l-225 -41q-113 -18 -113 -113q0 -102 133 -102zM717 1126q-78 0 -153 51.5t-113 51.5q-72 0 -72 -103h-174q0 156 59.5 232t159.5 76q76 0 151.5 -56.5t110.5 -56.5q72 0 72 113h174q0 -154 -58.5 -231t-156.5 -77z" />
    <glyph glyph-name="adieresis" unicode="&#xe4;" horiz-adv-x="1095" 
d="M676 0v102q-12 -14 -33.5 -34.5t-93.5 -54t-150 -33.5q-150 0 -244 83.5t-94 202.5q0 123 79 205t218 107l318 57q0 63 -46 103t-128 40q-68 0 -124 -25.5t-79 -52.5l-23 -24l-153 153q6 8 16.5 21.5t47 46.5t79.5 58.5t113 47t143 21.5q190 0 310 -113.5t120 -285.5
v-625h-276zM471 205q94 0 149.5 59.5t55.5 165.5v31l-225 -41q-113 -18 -113 -113q0 -102 133 -102zM195 1280q0 61 46 107.5t107.5 46.5t107.5 -46.5t46 -107.5t-46 -107.5t-107.5 -46.5t-107.5 46.5t-46 107.5zM645 1280q0 61 46 107.5t107.5 46.5t107.5 -46.5t46 -107.5
t-46 -107.5t-107.5 -46.5t-107.5 46.5t-46 107.5z" />
    <glyph glyph-name="aring" unicode="&#xe5;" horiz-adv-x="1095" 
d="M676 0v102q-12 -14 -33.5 -34.5t-93.5 -54t-150 -33.5q-150 0 -244 83.5t-94 202.5q0 123 79 205t218 107l318 57q0 63 -46 103t-128 40q-68 0 -124 -25.5t-79 -52.5l-23 -24l-153 153q6 8 16.5 21.5t47 46.5t79.5 58.5t113 47t143 21.5q190 0 310 -113.5t120 -285.5
v-625h-276zM471 205q94 0 149.5 59.5t55.5 165.5v31l-225 -41q-113 -18 -113 -113q0 -102 133 -102zM492 1321q0 -82 81.5 -82t81.5 82t-81.5 82t-81.5 -82zM809 1321q0 -92 -68.5 -158.5t-167 -66.5t-167 66.5t-68.5 158.5t68.5 158.5t167 66.5t167 -66.5t68.5 -158.5z" />
    <glyph glyph-name="ae" unicode="&#xe6;" horiz-adv-x="1792" 
d="M522 1024q59 0 115.5 -16.5t93.5 -41t64.5 -49t40.5 -40.5l14 -17q6 6 16.5 17.5t46 40t74.5 50t102.5 39t129.5 17.5q209 0 350 -143.5t141 -358.5l-10 -112h-717q16 -82 87 -138.5t179 -56.5q74 0 137.5 30.5t92.5 61.5l26 31l144 -184l-19 -18q-12 -13 -53 -43
t-86 -53.5t-116.5 -41.5t-145.5 -18q-72 0 -139.5 19t-112.5 46t-80 53.5t-51 44.5l-17 21q-4 -8 -14 -20.5t-46 -44t-79 -56.5t-112.5 -44t-147.5 -19q-164 0 -266.5 89t-102.5 212q0 135 116 229t315 94h204q0 184 -174 184q-68 0 -127 -27.5t-84 -55.5l-24 -29l-154 153
q6 8 16.5 21.5t47 46.5t77.5 58.5t108.5 47t139.5 21.5zM1208 788q-88 0 -148.5 -52t-76.5 -132h451q-16 80 -77 132t-149 52zM461 205q100 0 167.5 64.5t67.5 160.5h-184q-88 0 -136 -37t-48 -90q0 -37 37 -67.5t96 -30.5z" />
    <glyph glyph-name="ccedilla" unicode="&#xe7;" horiz-adv-x="1075" 
d="M61 502q0 209 161 365.5t382 156.5q78 0 148.5 -21.5t115.5 -51t80 -59.5t51 -52l15 -21l-174 -174q-8 14 -26.5 37t-80 59.5t-129.5 36.5q-109 0 -187.5 -81t-78.5 -195.5t79 -195.5t187 -81q68 0 129.5 33t89.5 66l27 34l164 -174q-4 -8 -14.5 -20t-44 -45t-73.5 -58.5
t-103.5 -49t-133.5 -29.5l-41 -84q8 0 20.5 -1t44 -10.5t56.5 -26t44 -52t19 -84.5q0 -86 -60 -140.5t-165 -54.5q-61 0 -117.5 22.5t-80.5 47.5l-27 22l61 113q61 -51 144 -51q72 0 71.5 51t-71.5 51l-51 -10l-52 61l68 154q-188 35 -317.5 181.5t-129.5 330.5z" />
    <glyph glyph-name="egrave" unicode="&#xe8;" horiz-adv-x="1167" 
d="M1075 410h-727q16 -82 87 -138.5t179 -56.5q78 0 144.5 30.5t93.5 61.5l29 31l143 -184l-18 -18q-13 -13 -54 -43t-87 -53.5t-119.5 -41.5t-151.5 -18q-221 0 -377 153.5t-156 368.5t154 368.5t369 153.5t358 -143.5t143 -358.5zM584 788q-88 0 -149.5 -51t-86.5 -133
h461q-16 80 -76.5 132t-148.5 52zM553 1444l164 -307h-225l-226 307h287z" />
    <glyph glyph-name="eacute" unicode="&#xe9;" horiz-adv-x="1167" 
d="M1075 410h-727q16 -82 87 -138.5t179 -56.5q78 0 144.5 30.5t93.5 61.5l29 31l143 -184l-18 -18q-13 -13 -54 -43t-87 -53.5t-119.5 -41.5t-151.5 -18q-221 0 -377 153.5t-156 368.5t154 368.5t369 153.5t358 -143.5t143 -358.5zM584 788q-88 0 -149.5 -51t-86.5 -133
h461q-16 80 -76.5 132t-148.5 52zM481 1137l164 307h287l-225 -307h-226z" />
    <glyph glyph-name="ecircumflex" unicode="&#xea;" horiz-adv-x="1167" 
d="M1075 410h-727q16 -82 87 -138.5t179 -56.5q78 0 144.5 30.5t93.5 61.5l29 31l143 -184l-18 -18q-13 -13 -54 -43t-87 -53.5t-119.5 -41.5t-151.5 -18q-221 0 -377 153.5t-156 368.5t154 368.5t369 153.5t358 -143.5t143 -358.5zM584 788q-88 0 -149.5 -51t-86.5 -133
h461q-16 80 -76.5 132t-148.5 52zM705 1444l245 -307h-245l-123 163l-123 -163h-246l246 307h246z" />
    <glyph glyph-name="edieresis" unicode="&#xeb;" horiz-adv-x="1167" 
d="M1075 410h-727q16 -82 87 -138.5t179 -56.5q78 0 144.5 30.5t93.5 61.5l29 31l143 -184l-18 -18q-13 -13 -54 -43t-87 -53.5t-119.5 -41.5t-151.5 -18q-221 0 -377 153.5t-156 368.5t154 368.5t369 153.5t358 -143.5t143 -358.5zM584 788q-88 0 -149.5 -51t-86.5 -133
h461q-16 80 -76.5 132t-148.5 52zM215 1280q0 61 46 107.5t107.5 46.5t107.5 -46.5t46 -107.5t-46 -107.5t-107.5 -46.5t-107.5 46.5t-46 107.5zM666 1280q0 61 46 107.5t107.5 46.5t107.5 -46.5t46 -107.5t-46 -107.5t-107.5 -46.5t-107.5 46.5t-46 107.5z" />
    <glyph glyph-name="igrave" unicode="&#xec;" horiz-adv-x="563" 
d="M215 1444l164 -307h-225l-226 307h287zM399 1004v-1004h-276v1004h276z" />
    <glyph glyph-name="iacute" unicode="&#xed;" horiz-adv-x="563" 
d="M143 1137l164 307h287l-225 -307h-226zM399 1004v-1004h-276v1004h276z" />
    <glyph glyph-name="icircumflex" unicode="&#xee;" horiz-adv-x="563" 
d="M399 1004v-1004h-276v1004h276zM379 1444l246 -307h-246l-123 163l-123 -163h-246l246 307h246z" />
    <glyph glyph-name="idieresis" unicode="&#xef;" horiz-adv-x="563" 
d="M-109 1280q0 61 46.5 107.5t107.5 46.5t107.5 -46.5t46.5 -107.5t-46.5 -107.5t-107.5 -46.5t-107.5 46.5t-46.5 107.5zM342 1280q0 61 46 107.5t107.5 46.5t107.5 -46.5t46 -107.5t-46 -107.5t-107.5 -46.5t-107.5 46.5t-46 107.5zM399 1004v-1004h-276v1004h276z" />
    <glyph glyph-name="eth" unicode="&#xf0;" 
d="M834 842q-33 98 -90.5 182t-98.5 119l-41 35l-235 -154l-113 164l143 102q-92 41 -204 72l71 205q100 -27 187.5 -60.5t124.5 -52.5l36 -20l236 163l123 -163l-185 -123q12 -10 34 -28.5t77 -86.5t96 -144.5t76 -203.5t35 -264q0 -287 -144.5 -445.5t-388.5 -158.5
q-213 0 -362.5 145t-149.5 346q0 199 142.5 345.5t328.5 146.5q82 0 158 -31t109 -60zM809 471q0 98 -71.5 172t-164 74t-164 -74t-71.5 -172t71.5 -172t164 -74t164 74t71.5 172z" />
    <glyph glyph-name="ntilde" unicode="&#xf1;" horiz-adv-x="1218" 
d="M399 1004v-123q12 16 34 39.5t96.5 63.5t156.5 40q172 0 280.5 -119t108.5 -321v-584h-276v553q0 92 -54.5 148.5t-140.5 56.5q-94 0 -149.5 -61.5t-55.5 -174.5v-522h-276v1004h276zM758 1137q-78 0 -153 51t-113 51q-72 0 -72 -102h-174q0 156 59.5 231.5t159.5 75.5
q76 0 151.5 -56.5t110.5 -56.5q72 0 72 113h174q0 -154 -58.5 -230.5t-156.5 -76.5z" />
    <glyph glyph-name="ograve" unicode="&#xf2;" horiz-adv-x="1208" 
d="M348 501.5q0 -112.5 73 -189t173 -76.5t173 76.5t73 189t-73 189.5t-173 77t-173 -77t-73 -189.5zM1126 502q0 -209 -158.5 -365.5t-373.5 -156.5t-374 156.5t-159 365.5t159 365.5t374 156.5t373.5 -156.5t158.5 -365.5zM543 1444l164 -307h-226l-225 307h287z" />
    <glyph glyph-name="oacute" unicode="&#xf3;" horiz-adv-x="1208" 
d="M348 501.5q0 -112.5 73 -189t173 -76.5t173 76.5t73 189t-73 189.5t-173 77t-173 -77t-73 -189.5zM1126 502q0 -209 -158.5 -365.5t-373.5 -156.5t-374 156.5t-159 365.5t159 365.5t374 156.5t373.5 -156.5t158.5 -365.5zM481 1137l164 307h287l-225 -307h-226z" />
    <glyph glyph-name="ocircumflex" unicode="&#xf4;" horiz-adv-x="1208" 
d="M348 501.5q0 -112.5 73 -189t173 -76.5t173 76.5t73 189t-73 189.5t-173 77t-173 -77t-73 -189.5zM1126 502q0 -209 -158.5 -365.5t-373.5 -156.5t-374 156.5t-159 365.5t159 365.5t374 156.5t373.5 -156.5t158.5 -365.5zM717 1444l246 -307h-246l-123 163l-123 -163
h-246l246 307h246z" />
    <glyph glyph-name="otilde" unicode="&#xf5;" horiz-adv-x="1208" 
d="M348 501.5q0 -112.5 73 -189t173 -76.5t173 76.5t73 189t-73 189.5t-173 77t-173 -77t-73 -189.5zM1126 502q0 -209 -158.5 -365.5t-373.5 -156.5t-374 156.5t-159 365.5t159 365.5t374 156.5t373.5 -156.5t158.5 -365.5zM748 1137q-78 0 -153 51t-114 51q-72 0 -71 -102
h-174q0 156 59 231.5t160 75.5q59 0 107 -27.5t85 -56.5t70 -29q72 0 71 113h175q0 -154 -58.5 -230.5t-156.5 -76.5z" />
    <glyph glyph-name="odieresis" unicode="&#xf6;" horiz-adv-x="1208" 
d="M348 501.5q0 -112.5 73 -189t173 -76.5t173 76.5t73 189t-73 189.5t-173 77t-173 -77t-73 -189.5zM1126 502q0 -209 -158.5 -365.5t-373.5 -156.5t-374 156.5t-159 365.5t159 365.5t374 156.5t373.5 -156.5t158.5 -365.5zM225 1290.5q0 61.5 46 107.5t107.5 46t107.5 -46
t46 -107.5t-46 -107.5t-107.5 -46t-107.5 46t-46 107.5zM676 1290.5q0 61.5 46 107.5t107.5 46t107.5 -46t46 -107.5t-46 -107.5t-107.5 -46t-107.5 46t-46 107.5z" />
    <glyph glyph-name="divide" unicode="&#xf7;" horiz-adv-x="1064" 
d="M993 707v-215h-921v215h921zM696 972.5q0 -61.5 -48 -107.5t-115.5 -46t-115.5 46t-48 107.5t48 107.5t115.5 46t115.5 -46t48 -107.5zM696 225.5q0 -61.5 -48 -107.5t-115.5 -46t-115.5 46t-48 107.5t48 107.5t115.5 46t115.5 -46t48 -107.5z" />
    <glyph glyph-name="oslash" unicode="&#xf8;" horiz-adv-x="1208" 
d="M369 399l317 349q-41 20 -92 20q-100 0 -173 -77t-73 -189q0 -27 5 -52.5t12 -37.5zM1126 502q0 -209 -158.5 -365.5t-373.5 -156.5q-82 0 -151.5 20t-98.5 41l-27 20l-122 -133l-144 144l113 123q-12 14 -28.5 41.5t-45.5 107.5t-29 158q0 209 159 365.5t374 156.5
q82 0 151.5 -20.5t98.5 -40.5l26 -21l123 133l144 -143l-113 -123q12 -14 28.5 -42t45 -107.5t28.5 -157.5zM819 604l-317 -348q41 -20 92 -20q100 0 173 76.5t73 189.5q0 27 -5.5 52.5t-11.5 37.5z" />
    <glyph glyph-name="ugrave" unicode="&#xf9;" 
d="M799 0v102q-12 -14 -34 -34.5t-96.5 -54t-156.5 -33.5q-172 0 -280.5 115.5t-108.5 307.5v601h276v-574q0 -84 55.5 -139t139.5 -55q94 0 149.5 61t55.5 174v533h276v-1004h-276zM543 1444l164 -307h-226l-225 307h287z" />
    <glyph glyph-name="uacute" unicode="&#xfa;" 
d="M799 0v102q-12 -14 -34 -34.5t-96.5 -54t-156.5 -33.5q-172 0 -280.5 115.5t-108.5 307.5v601h276v-574q0 -84 55.5 -139t139.5 -55q94 0 149.5 61t55.5 174v533h276v-1004h-276zM471 1137l164 307h287l-226 -307h-225z" />
    <glyph glyph-name="ucircumflex" unicode="&#xfb;" 
d="M799 0v102q-12 -14 -34 -34.5t-96.5 -54t-156.5 -33.5q-172 0 -280.5 115.5t-108.5 307.5v601h276v-574q0 -84 55.5 -139t139.5 -55q94 0 149.5 61t55.5 174v533h276v-1004h-276zM707 1444l245 -307h-245l-123 163l-123 -163h-246l246 307h246z" />
    <glyph glyph-name="udieresis" unicode="&#xfc;" 
d="M799 0v102q-12 -14 -34 -34.5t-96.5 -54t-156.5 -33.5q-172 0 -280.5 115.5t-108.5 307.5v601h276v-574q0 -84 55.5 -139t139.5 -55q94 0 149.5 61t55.5 174v533h276v-1004h-276zM215 1290.5q0 61.5 46 107.5t107.5 46t107.5 -46t46 -107.5t-46 -107.5t-107.5 -46
t-107.5 46t-46 107.5zM666 1290.5q0 61.5 46 107.5t107.5 46t107.5 -46t46 -107.5t-46 -107.5t-107.5 -46t-107.5 46t-46 107.5z" />
    <glyph glyph-name="yacute" unicode="&#xfd;" horiz-adv-x="1064" 
d="M358 -61l31 71l-389 994h287l235 -666l236 666h286l-399 -1065q-137 -369 -389 -369q-45 0 -89 8t-65 16l-20 7v245q41 -20 102 -20q125 0 174 113zM420 1137l164 307h286l-225 -307h-225z" />
    <glyph glyph-name="thorn" unicode="&#xfe;" horiz-adv-x="1269" 
d="M707 -20q-86 0 -161 35.5t-106 70.5l-30 37v-553h-277v1864h277v-553q4 6 12 15t35.5 33.5t59.5 44t83 35t107 15.5q195 0 338 -151.5t143 -370.5t-143 -370.5t-338 -151.5zM655.5 778q-102.5 0 -174 -77.5t-71.5 -198.5t71.5 -199t174 -78t174 78t71.5 199t-71.5 198.5
t-174 77.5z" />
    <glyph glyph-name="ydieresis" unicode="&#xff;" horiz-adv-x="1064" 
d="M358 -61l31 71l-389 994h287l235 -666l236 666h286l-399 -1065q-137 -369 -389 -369q-45 0 -89 8t-65 16l-20 7v245q41 -20 102 -20q125 0 174 113zM154 1290.5q0 61.5 46 107.5t107.5 46t107.5 -46t46 -107.5t-46 -107.5t-107.5 -46t-107.5 46t-46 107.5zM604 1290.5
q0 61.5 46 107.5t107.5 46t107.5 -46t46 -107.5t-46 -107.5t-107.5 -46t-107.5 46t-46 107.5z" />
    <glyph glyph-name="Amacron" unicode="&#x100;" horiz-adv-x="1495" 
d="M922 604l-174 471l-175 -471h349zM1024 338h-553l-123 -338h-328l564 1434h327l564 -1434h-328zM1075 1874v-205h-655v205h655z" />
    <glyph glyph-name="amacron" unicode="&#x101;" horiz-adv-x="1095" 
d="M676 0v102q-12 -14 -33.5 -34.5t-93.5 -54t-150 -33.5q-150 0 -244 83.5t-94 202.5q0 123 79 205t218 107l318 57q0 63 -46 103t-128 40q-68 0 -124 -25.5t-79 -52.5l-23 -24l-153 153q6 8 16.5 21.5t47 46.5t79.5 58.5t113 47t143 21.5q190 0 310 -113.5t120 -285.5
v-625h-276zM471 205q94 0 149.5 59.5t55.5 165.5v31l-225 -41q-113 -18 -113 -113q0 -102 133 -102zM891 1423v-204h-655v204h655z" />
    <glyph glyph-name="Abreve" unicode="&#x102;" horiz-adv-x="1495" 
d="M922 604l-174 471l-175 -471h349zM1024 338h-553l-123 -338h-328l564 1434h327l564 -1434h-328zM758 1792q53 0 88 35t35 88h204q0 -131 -92 -219t-235.5 -88t-235.5 88t-92 219h205q0 -53 35 -88t88 -35z" />
    <glyph glyph-name="abreve" unicode="&#x103;" horiz-adv-x="1095" 
d="M676 0v102q-12 -14 -33.5 -34.5t-93.5 -54t-150 -33.5q-150 0 -244 83.5t-94 202.5q0 123 79 205t218 107l318 57q0 63 -46 103t-128 40q-68 0 -124 -25.5t-79 -52.5l-23 -24l-153 153q6 8 16.5 21.5t47 46.5t79.5 58.5t113 47t143 21.5q190 0 310 -113.5t120 -285.5
v-625h-276zM471 205q94 0 149.5 59.5t55.5 165.5v31l-225 -41q-113 -18 -113 -113q0 -102 133 -102zM563 1321q53 0 88 35t35 88h205q0 -131 -92 -219t-235.5 -88t-235.5 88t-92 219h204q0 -53 35 -88t88 -35z" />
    <glyph glyph-name="Aogonek" unicode="&#x104;" horiz-adv-x="1495" 
d="M1147 0l-123 338h-553l-123 -338h-328l564 1434h327l564 -1434h-185q-72 -102 -71 -205q0 -82 92 -82q27 0 52.5 5.5t37.5 11.5l12 4v-154q-61 -31 -164 -31q-98 0 -161.5 60.5t-63.5 148.5q0 61 30.5 122t61.5 91zM922 604l-174 471l-175 -471h349z" />
    <glyph glyph-name="aogonek" unicode="&#x105;" horiz-adv-x="1095" 
d="M471 205q94 0 149.5 59.5t55.5 165.5v31l-225 -41q-113 -18 -113 -113q0 -102 133 -102zM676 0v102q-12 -14 -33.5 -34.5t-93.5 -54t-150 -33.5q-150 0 -244 83.5t-94 202.5q0 123 79 205t218 107l318 57q0 63 -46 103t-128 40q-68 0 -124 -25.5t-79 -52.5l-23 -24
l-153 153q6 8 16.5 21.5t47 46.5t79.5 58.5t113 47t143 21.5q190 0 310 -113.5t120 -285.5v-625h-133q-72 -102 -71 -205q0 -82 92 -82q27 0 52.5 5.5t37.5 11.5l12 4v-154q-61 -31 -164 -31q-98 0 -161.5 60.5t-63.5 148.5q0 61 30.5 122t61.5 91z" />
    <glyph glyph-name="Cacute" unicode="&#x106;" horiz-adv-x="1546" 
d="M881 1464q113 0 215 -29.5t167.5 -71.5t116 -84t72.5 -71l23 -30l-195 -195q-6 8 -16.5 22.5t-47 49.5t-79.5 61.5t-113 49t-143 22.5q-201 0 -336 -135t-135 -336t135 -336t336 -135q78 0 149.5 21.5t118.5 51t83 59.5t52 52l16 21l185 -195q-8 -12 -24.5 -31.5t-73 -69
t-121 -87t-169 -68.5t-216.5 -31q-328 0 -553.5 219.5t-225.5 528.5t225.5 528t553.5 219zM727 1608l164 307h287l-226 -307h-225z" />
    <glyph glyph-name="cacute" unicode="&#x107;" horiz-adv-x="1075" 
d="M61 502q0 209 161 365.5t382 156.5q78 0 148.5 -21.5t115.5 -51t80 -59.5t51 -52l15 -21l-174 -174q-8 14 -26.5 37t-80 59.5t-129.5 36.5q-109 0 -187.5 -81t-78.5 -195.5t79 -195.5t187 -81q68 0 129.5 33t89.5 66l27 34l164 -174q-6 -8 -16.5 -22.5t-48.5 -49t-82 -61
t-114.5 -49t-148.5 -22.5q-221 0 -382 156.5t-161 365.5zM461 1137l164 307h286l-225 -307h-225z" />
    <glyph glyph-name="Ccircumflex" unicode="&#x108;" horiz-adv-x="1546" 
d="M881 1464q113 0 215 -29.5t167.5 -71.5t116 -84t72.5 -71l23 -30l-195 -195q-6 8 -16.5 22.5t-47 49.5t-79.5 61.5t-113 49t-143 22.5q-201 0 -336 -135t-135 -336t135 -336t336 -135q78 0 149.5 21.5t118.5 51t83 59.5t52 52l16 21l185 -195q-8 -12 -24.5 -31.5t-73 -69
t-121 -87t-169 -68.5t-216.5 -31q-328 0 -553.5 219.5t-225.5 528.5t225.5 528t553.5 219zM973 1915l246 -307h-246l-123 164l-123 -164h-246l246 307h246z" />
    <glyph glyph-name="ccircumflex" unicode="&#x109;" horiz-adv-x="1075" 
d="M61 502q0 209 161 365.5t382 156.5q78 0 148.5 -21.5t115.5 -51t80 -59.5t51 -52l15 -21l-174 -174q-8 14 -26.5 37t-80 59.5t-129.5 36.5q-109 0 -187.5 -81t-78.5 -195.5t79 -195.5t187 -81q68 0 129.5 33t89.5 66l27 34l164 -174q-6 -8 -16.5 -22.5t-48.5 -49t-82 -61
t-114.5 -49t-148.5 -22.5q-221 0 -382 156.5t-161 365.5zM694 1444l246 -307h-246l-123 163l-122 -163h-246l246 307h245z" />
    <glyph glyph-name="Ccaron" unicode="&#x10c;" horiz-adv-x="1546" 
d="M881 1464q113 0 215 -29.5t167.5 -71.5t116 -84t72.5 -71l23 -30l-195 -195q-6 8 -16.5 22.5t-47 49.5t-79.5 61.5t-113 49t-143 22.5q-201 0 -336 -135t-135 -336t135 -336t336 -135q78 0 149.5 21.5t118.5 51t83 59.5t52 52l16 21l185 -195q-8 -12 -24.5 -31.5t-73 -69
t-121 -87t-169 -68.5t-216.5 -31q-328 0 -553.5 219.5t-225.5 528.5t225.5 528t553.5 219zM1219 1915l-246 -307h-246l-246 307h248l121 -164l123 164h246z" />
    <glyph glyph-name="ccaron" unicode="&#x10d;" horiz-adv-x="1075" 
d="M61 502q0 209 161 365.5t382 156.5q78 0 148.5 -21.5t115.5 -51t80 -59.5t51 -52l15 -21l-174 -174q-8 14 -26.5 37t-80 59.5t-129.5 36.5q-109 0 -187.5 -81t-78.5 -195.5t79 -195.5t187 -81q68 0 129.5 33t89.5 66l27 34l164 -174q-6 -8 -16.5 -22.5t-48.5 -49t-82 -61
t-114.5 -49t-148.5 -22.5q-221 0 -382 156.5t-161 365.5zM942 1444l-246 -307h-245l-246 307h248l120 -164l123 164h246z" />
    <glyph glyph-name="Dcaron" unicode="&#x10e;" horiz-adv-x="1556" 
d="M184 1434h533q313 0 525 -208t212 -509t-212 -509t-525 -208h-533v1434zM717 1157h-225v-881h225q178 0 304 128t126 312.5t-123 312.5t-307 128zM1141 1915l-246 -307h-246l-246 307h248l121 -164l123 164h246z" />
    <glyph glyph-name="dcaron" unicode="&#x10f;" horiz-adv-x="1413" 
d="M543 1024q86 0 160.5 -36t105.5 -70l31 -37v553h276v-1434h-276v123q-4 -6 -12.5 -15.5t-36 -34t-59.5 -44t-83 -34.5t-106 -15q-195 0 -338.5 151.5t-143.5 370.5t143.5 370.5t338.5 151.5zM594 225q102 0 174 78t72 199t-72 198.5t-174 77.5t-174 -77.5t-72 -198.5
t72 -199t174 -78zM1188 1126l92 308h256l-143 -308h-205z" />
    <glyph glyph-name="Dcroat" unicode="&#x110;" horiz-adv-x="1597" 
d="M225 1434h533q313 0 525 -208t212 -509t-212 -509t-525 -208h-533v594h-174v246h174v594zM758 1157h-226v-317h277v-246h-277v-318h226q178 0 304 128t126 312.5t-123 312.5t-307 128z" />
    <glyph glyph-name="dcroat" unicode="&#x111;" horiz-adv-x="1249" 
d="M584 1044v246h225v144h276v-144h154v-246h-154v-1044h-276v113q-12 -14 -33.5 -37t-98.5 -59.5t-161 -36.5q-190 0 -322.5 139t-132.5 352q0 211 132.5 351.5t318.5 140.5q86 0 161 -36t105 -71l31 -37v225h-225zM573.5 215q94.5 0 165 75t70.5 181.5t-70.5 181
t-165 74.5t-165 -74.5t-70.5 -181t70.5 -181.5t165 -75z" />
    <glyph glyph-name="Emacron" unicode="&#x112;" horiz-adv-x="1361" 
d="M492 276h768v-276h-1076v1434h1055v-277h-747v-287h583v-276h-583v-318zM1055 1874v-205h-656v205h656z" />
    <glyph glyph-name="emacron" unicode="&#x113;" horiz-adv-x="1167" 
d="M1075 410h-727q16 -82 87 -138.5t179 -56.5q78 0 144.5 30.5t93.5 61.5l29 31l143 -184l-18 -18q-13 -13 -54 -43t-87 -53.5t-119.5 -41.5t-151.5 -18q-221 0 -377 153.5t-156 368.5t154 368.5t369 153.5t358 -143.5t143 -358.5zM584 788q-88 0 -149.5 -51t-86.5 -133
h461q-16 80 -76.5 132t-148.5 52zM911 1403v-205h-655v205h655z" />
    <glyph glyph-name="Edotaccent" unicode="&#x116;" horiz-adv-x="1361" 
d="M492 276h768v-276h-1076v1434h1055v-277h-747v-287h583v-276h-583v-318zM901 1761.5q0 -69.5 -44 -111.5t-120 -42q-70 0 -111.5 42t-41.5 111.5t42 111.5t111 42q76 0 120 -42t44 -111.5z" />
    <glyph glyph-name="edotaccent" unicode="&#x117;" horiz-adv-x="1167" 
d="M1075 410h-727q16 -82 87 -138.5t179 -56.5q78 0 144.5 30.5t93.5 61.5l29 31l143 -184l-18 -18q-13 -13 -54 -43t-87 -53.5t-119.5 -41.5t-151.5 -18q-221 0 -377 153.5t-156 368.5t154 368.5t369 153.5t358 -143.5t143 -358.5zM584 788q-88 0 -149.5 -51t-86.5 -133
h461q-16 80 -76.5 132t-148.5 52zM754 1290.5q0 -69.5 -44 -111.5t-120 -42q-70 0 -112 42t-42 111.5t42 111.5t112 42q76 0 120 -42t44 -111.5z" />
    <glyph glyph-name="Eogonek" unicode="&#x118;" horiz-adv-x="1361" 
d="M1116 0h-932v1434h1055v-277h-747v-287h583v-276h-583v-318h768v-276q-72 -102 -72 -205q0 -82 92 -82q27 0 52.5 5.5t37.5 11.5l12 4v-154q-61 -31 -163 -31q-98 0 -162 60.5t-64 148.5q0 61 31 122t61 91z" />
    <glyph glyph-name="eogonek" unicode="&#x119;" horiz-adv-x="1167" 
d="M1075 410h-727q16 -82 87 -138.5t179 -56.5q78 0 144.5 30.5t93.5 61.5l29 31l143 -184q-14 -16 -41 -40t-118 -70t-189 -58q-61 -102 -62 -191q0 -82 93 -82q27 0 52 5.5t38 11.5l12 4v-154q-61 -31 -164 -31q-98 0 -161.5 60.5t-63.5 148.5q0 121 104 226
q-199 25 -331 172t-132 346q0 215 154 368.5t369 153.5t358 -143.5t143 -358.5zM584 788q-88 0 -149.5 -51t-86.5 -133h461q-16 80 -76.5 132t-148.5 52z" />
    <glyph glyph-name="Ecaron" unicode="&#x11a;" horiz-adv-x="1361" 
d="M492 276h768v-276h-1076v1434h1055v-277h-747v-287h583v-276h-583v-318zM1096 1915l-246 -307h-246l-246 307h248l121 -164l123 164h246z" />
    <glyph glyph-name="ecaron" unicode="&#x11b;" horiz-adv-x="1167" 
d="M1075 410h-727q16 -82 87 -138.5t179 -56.5q78 0 144.5 30.5t93.5 61.5l29 31l143 -184l-18 -18q-13 -13 -54 -43t-87 -53.5t-119.5 -41.5t-151.5 -18q-221 0 -377 153.5t-156 368.5t154 368.5t369 153.5t358 -143.5t143 -358.5zM584 788q-88 0 -149.5 -51t-86.5 -133
h461q-16 80 -76.5 132t-148.5 52zM952 1444l-245 -307h-246l-246 307h248l121 -164l123 164h245z" />
    <glyph glyph-name="Gbreve" unicode="&#x11e;" horiz-adv-x="1658" 
d="M942 778h563v-532q-8 -10 -25.5 -29.5t-77 -67t-126 -84t-174 -66.5t-221.5 -30q-328 0 -553.5 219.5t-225.5 528.5t225.5 528t553.5 219q113 0 215 -29.5t167.5 -71.5t116 -84t72.5 -71l23 -30l-195 -195q-6 8 -16.5 22.5t-47 49.5t-79.5 61.5t-113 49t-143 22.5
q-201 0 -336 -135t-135 -336t135 -336t336 -135q96 0 175 28.5t111 57.5l31 26v195h-256v225zM860 1792q53 0 88 35t35 88h205q0 -131 -92 -219t-235.5 -88t-236 88t-92.5 219h205q0 -53 35 -88t88 -35z" />
    <glyph glyph-name="gbreve" unicode="&#x11f;" 
d="M809 82v82q-4 -6 -12.5 -15.5t-36 -34t-59 -44t-83 -35t-106.5 -15.5q-172 0 -311.5 149.5t-139.5 352.5t139.5 352.5t311.5 149.5q86 0 161 -36t105 -70l31 -37v123h276v-922q0 -217 -151.5 -364.5t-380.5 -147.5q-86 0 -165 22.5t-131 53t-91 62.5t-55 54l-19 23
l174 164q10 -14 30.5 -37t92.5 -59.5t154 -36.5q123 0 194.5 71.5t71.5 194.5zM348 522.5q0 -106.5 65.5 -176.5t160 -70t165 72t70.5 174.5t-70.5 174t-165 71.5t-160 -69.5t-65.5 -176zM608.5 1325q53.5 0 88 35t34.5 88h205q0 -131 -92 -219t-235.5 -88t-235.5 88
t-92 219h204q0 -53 35 -88t88.5 -35z" />
    <glyph glyph-name="uni0122" unicode="&#x122;" horiz-adv-x="1658" 
d="M942 778h563v-532q-8 -10 -25.5 -29.5t-77 -67t-126 -84t-174 -66.5t-221.5 -30q-328 0 -553.5 219.5t-225.5 528.5t225.5 528t553.5 219q113 0 215 -29.5t167.5 -71.5t116 -84t72.5 -71l23 -30l-195 -195q-6 8 -16.5 22.5t-47 49.5t-79.5 61.5t-113 49t-143 22.5
q-201 0 -336 -135t-135 -336t135 -336t336 -135q96 0 175 28.5t111 57.5l31 26v195h-256v225zM645 -471l92 307h256l-143 -307h-205z" />
    <glyph glyph-name="uni0123" unicode="&#x123;" 
d="M809 82v82q-4 -6 -12.5 -15.5t-36 -34t-59 -44t-83 -35t-106.5 -15.5q-172 0 -311.5 149.5t-139.5 352.5t139.5 352.5t311.5 149.5q86 0 161 -36t105 -70l31 -37v123h276v-922q0 -217 -151.5 -364.5t-380.5 -147.5q-86 0 -165 22.5t-131 53t-91 62.5t-55 54l-19 23
l174 164q10 -14 30.5 -37t92.5 -59.5t154 -36.5q123 0 194.5 71.5t71.5 194.5zM348 522.5q0 -106.5 65.5 -176.5t160 -70t165 72t70.5 174.5t-70.5 174t-165 71.5t-160 -69.5t-65.5 -176zM799 1444l-92 -307h-256l143 307h205z" />
    <glyph glyph-name="Imacron" unicode="&#x12a;" horiz-adv-x="675" 
d="M184 0v1434h308v-1434h-308zM666 1874v-205h-656v205h656z" />
    <glyph glyph-name="imacron" unicode="&#x12b;" horiz-adv-x="563" 
d="M594 1403v-205h-655v205h655zM399 1004v-1004h-276v1004h276z" />
    <glyph glyph-name="Iogonek" unicode="&#x12e;" horiz-adv-x="675" 
d="M61 -242q0 61 31 122t62 91l30 29v1434h308v-1434h-164q-72 -102 -72 -205q0 -82 92 -82q27 0 52.5 5.5t37.5 11.5l13 4v-154q-61 -31 -164 -31q-98 0 -162 60.5t-64 148.5z" />
    <glyph glyph-name="iogonek" unicode="&#x12f;" horiz-adv-x="563" 
d="M133 0v1004h277v-1004h-134q-72 -102 -71 -205q0 -82 92 -82q27 0 52.5 5.5t37.5 11.5l12 4v-154q-61 -31 -163 -31q-98 0 -162 60.5t-64 148.5q0 61 31 122t61 91zM430 1290.5q0 -69.5 -44 -111.5t-120 -42q-70 0 -111.5 42t-41.5 111.5t42 111.5t111 42q76 0 120 -42
t44 -111.5z" />
    <glyph glyph-name="Idotaccent" unicode="&#x130;" horiz-adv-x="675" 
d="M184 0v1434h308v-1434h-308zM502 1761.5q0 -69.5 -44 -111.5t-120 -42q-70 0 -112 42t-42 111.5t42 111.5t112 42q76 0 120 -42t44 -111.5z" />
    <glyph glyph-name="dotlessi" unicode="&#x131;" horiz-adv-x="563" 
d="M399 1004v-1004h-276v1004h276z" />
    <glyph glyph-name="uni0136" unicode="&#x136;" horiz-adv-x="1454" 
d="M492 1434v-625l563 625h358l-532 -594l573 -840h-358l-420 614l-184 -204v-410h-308v1434h308zM553 -471l92 307h256l-143 -307h-205z" />
    <glyph glyph-name="uni0137" unicode="&#x137;" horiz-adv-x="1116" 
d="M532 389l-122 -143v-246h-277v1434h277v-840l358 410h317l-378 -431l399 -573h-307zM389 -471l92 307h256l-143 -307h-205z" />
    <glyph glyph-name="Lacute" unicode="&#x139;" horiz-adv-x="1208" 
d="M1157 0h-973v1434h308v-1158h665v-276zM236 1608l163 307h287l-225 -307h-225z" />
    <glyph glyph-name="lacute" unicode="&#x13a;" horiz-adv-x="573" 
d="M410 1434v-1434h-277v1434h277zM174 1608l164 307h287l-226 -307h-225z" />
    <glyph glyph-name="uni013B" unicode="&#x13b;" horiz-adv-x="1208" 
d="M1157 0h-973v1434h308v-1158h665v-276zM455 -471l92 307h256l-144 -307h-204z" />
    <glyph glyph-name="uni013C" unicode="&#x13c;" horiz-adv-x="573" 
d="M410 1434v-1434h-277v1434h277zM51 -471l92 307h256l-143 -307h-205z" />
    <glyph glyph-name="Lcaron" unicode="&#x13d;" horiz-adv-x="1208" 
d="M1157 0h-973v1434h308v-1158h665v-276zM594 1126l92 308h256l-143 -308h-205z" />
    <glyph glyph-name="lcaron" unicode="&#x13e;" horiz-adv-x="716" 
d="M410 1434v-1434h-277v1434h277zM492 1126l92 308h256l-144 -308h-204z" />
    <glyph glyph-name="Lslash" unicode="&#x141;" horiz-adv-x="1331" 
d="M1280 0h-973v481l-194 -112l-133 235l327 184v646h307v-482l205 113l133 -225l-338 -195v-369h666v-276z" />
    <glyph glyph-name="lslash" unicode="&#x142;" horiz-adv-x="788" 
d="M840 860l-318 -194v-666h-276v502l-195 -113l-123 205l318 184v656h276v-492l205 123z" />
    <glyph glyph-name="Nacute" unicode="&#x143;" horiz-adv-x="1648" 
d="M1157 1434h307v-1434h-266l-706 911v-911h-308v1434h267l706 -912v912zM717 1608l164 307h286l-225 -307h-225z" />
    <glyph glyph-name="nacute" unicode="&#x144;" horiz-adv-x="1218" 
d="M399 1004v-123q12 16 34 39.5t96.5 63.5t156.5 40q172 0 280.5 -119t108.5 -321v-584h-276v553q0 92 -54.5 148.5t-140.5 56.5q-94 0 -149.5 -61.5t-55.5 -174.5v-522h-276v1004h276zM502 1137l164 307h286l-225 -307h-225z" />
    <glyph glyph-name="uni0145" unicode="&#x145;" horiz-adv-x="1648" 
d="M1157 1434h307v-1434h-266l-706 911v-911h-308v1434h267l706 -912v912zM635 -471l92 307h256l-143 -307h-205z" />
    <glyph glyph-name="uni0146" unicode="&#x146;" horiz-adv-x="1218" 
d="M399 1004v-123q12 16 34 39.5t96.5 63.5t156.5 40q172 0 280.5 -119t108.5 -321v-584h-276v553q0 92 -54.5 148.5t-140.5 56.5q-94 0 -149.5 -61.5t-55.5 -174.5v-522h-276v1004h276zM379 -471l92 307h256l-143 -307h-205z" />
    <glyph glyph-name="Ncaron" unicode="&#x147;" horiz-adv-x="1648" 
d="M1157 1434h307v-1434h-266l-706 911v-911h-308v1434h267l706 -912v912zM1188 1915l-246 -307h-246l-245 307h247l121 -164l123 164h246z" />
    <glyph glyph-name="ncaron" unicode="&#x148;" horiz-adv-x="1218" 
d="M399 1004v-123q12 16 34 39.5t96.5 63.5t156.5 40q172 0 280.5 -119t108.5 -321v-584h-276v553q0 92 -54.5 148.5t-140.5 56.5q-94 0 -149.5 -61.5t-55.5 -174.5v-522h-276v1004h276zM973 1444l-246 -307h-246l-245 307h247l121 -164l123 164h246z" />
    <glyph glyph-name="Omacron" unicode="&#x14c;" horiz-adv-x="1761" 
d="M420 716.5q0 -198.5 134 -334.5t326.5 -136t326.5 136t134 334.5t-134 335t-326.5 136.5t-326.5 -136.5t-134 -335zM102 717q0 309 225.5 528t553 219t553 -219t225.5 -528t-225.5 -528.5t-553 -219.5t-553 219.5t-225.5 528.5zM1208 1874v-205h-655v205h655z" />
    <glyph glyph-name="omacron" unicode="&#x14d;" horiz-adv-x="1208" 
d="M348 501.5q0 -112.5 73 -189t173 -76.5t173 76.5t73 189t-73 189.5t-173 77t-173 -77t-73 -189.5zM1126 502q0 -209 -158.5 -365.5t-373.5 -156.5t-374 156.5t-159 365.5t159 365.5t374 156.5t373.5 -156.5t158.5 -365.5zM922 1403v-205h-656v205h656z" />
    <glyph glyph-name="Ohungarumlaut" unicode="&#x150;" horiz-adv-x="1761" 
d="M420 716.5q0 -198.5 134 -334.5t326.5 -136t326.5 136t134 334.5t-134 335t-326.5 136.5t-326.5 -136.5t-134 -335zM102 717q0 309 225.5 528t553 219t553 -219t225.5 -528t-225.5 -528.5t-553 -219.5t-553 219.5t-225.5 528.5zM584 1608l164 307h276l-236 -307h-204z
M973 1608l164 307h276l-235 -307h-205z" />
    <glyph glyph-name="ohungarumlaut" unicode="&#x151;" horiz-adv-x="1212" 
d="M348 501.5q0 -112.5 73 -189t173 -76.5t173 76.5t73 189t-73 189.5t-173 77t-173 -77t-73 -189.5zM1126 502q0 -209 -158.5 -365.5t-373.5 -156.5t-374 156.5t-159 365.5t159 365.5t374 156.5t373.5 -156.5t158.5 -365.5zM297 1137l164 307h276l-235 -307h-205zM686 1137
l164 307h276l-235 -307h-205z" />
    <glyph glyph-name="OE" unicode="&#x152;" horiz-adv-x="2088" 
d="M860 1434h1116v-267h-665v-303h501v-256h-501v-342h686v-266h-1137q-319 0 -538.5 211t-219.5 506t219.5 506t538.5 211zM1004 1157h-144q-190 0 -320 -128t-130 -312q0 -205 132 -323t318 -118h144v881z" />
    <glyph glyph-name="oe" unicode="&#x153;" horiz-adv-x="1935" 
d="M1843 410h-727q16 -82 87 -138.5t179 -56.5q78 0 144.5 30.5t95.5 61.5l27 31l143 -174q-6 -8 -18.5 -20.5t-53.5 -44t-87 -56.5t-119.5 -44t-151.5 -19q-74 0 -141.5 18t-110.5 43t-76 50.5t-47 43.5l-14 19q-6 -6 -16.5 -18.5t-48.5 -42.5t-79 -53.5t-108.5 -41.5
t-136.5 -18q-215 0 -369 153.5t-154 368.5t154 368.5t369 153.5q109 0 206 -46t140 -93l43 -45q6 8 16 20t46 44t77 56.5t105.5 44t134.5 19.5q213 0 357 -146.5t144 -355.5zM819 502q0 119 -70.5 197.5t-165 78.5t-165 -78.5t-70.5 -197.5t70.5 -198t165 -79t165 79
t70.5 198zM1352 799q-90 0 -150.5 -53.5t-85.5 -141.5h461q-16 86 -75.5 140.5t-149.5 54.5z" />
    <glyph glyph-name="Racute" unicode="&#x154;" horiz-adv-x="1454" 
d="M184 0v1434h635q213 0 352.5 -136.5t139.5 -334.5q0 -86 -27 -161t-63.5 -121t-74.5 -79t-65 -45l-26 -14l307 -543h-328l-276 502h-266v-502h-308zM1004 963q0 84 -55.5 139t-139.5 55h-317v-379h317q84 0 139.5 53.5t55.5 131.5zM604 1608l164 307h287l-226 -307h-225z
" />
    <glyph glyph-name="racute" unicode="&#x155;" horiz-adv-x="757" 
d="M727 1014v-277q-31 10 -92 11q-109 0 -172.5 -69t-63.5 -198v-481h-276v1004h276v-123q12 14 34 36.5t96.5 59.5t156.5 37h41zM307 1137l164 307h287l-226 -307h-225z" />
    <glyph glyph-name="uni0156" unicode="&#x156;" horiz-adv-x="1454" 
d="M184 0v1434h635q213 0 352.5 -136.5t139.5 -334.5q0 -86 -27 -161t-63.5 -121t-74.5 -79t-65 -45l-26 -14l307 -543h-328l-276 502h-266v-502h-308zM1004 963q0 84 -55.5 139t-139.5 55h-317v-379h317q84 0 139.5 53.5t55.5 131.5zM522 -471l92 307h256l-143 -307h-205z
" />
    <glyph glyph-name="uni0157" unicode="&#x157;" horiz-adv-x="757" 
d="M727 1014v-277q-31 10 -92 11q-109 0 -172.5 -69t-63.5 -198v-481h-276v1004h276v-123q12 14 34 36.5t96.5 59.5t156.5 37h41zM41 -471l92 307h256l-143 -307h-205z" />
    <glyph glyph-name="Rcaron" unicode="&#x158;" horiz-adv-x="1454" 
d="M184 0v1434h635q213 0 352.5 -136.5t139.5 -334.5q0 -86 -27 -161t-63.5 -121t-74.5 -79t-65 -45l-26 -14l307 -543h-328l-276 502h-266v-502h-308zM1004 963q0 84 -55.5 139t-139.5 55h-317v-379h317q84 0 139.5 53.5t55.5 131.5zM1085 1915l-245 -307h-246l-246 307
h248l121 -164l123 164h245z" />
    <glyph glyph-name="rcaron" unicode="&#x159;" horiz-adv-x="757" 
d="M727 1014v-277q-31 10 -92 11q-109 0 -172.5 -69t-63.5 -198v-481h-276v1004h276v-123q12 14 34 36.5t96.5 59.5t156.5 37h41zM778 1444l-246 -307h-245l-246 307h248l121 -164l122 164h246z" />
    <glyph glyph-name="Sacute" unicode="&#x15a;" 
d="M809 420q0 72 -72.5 116t-177 73.5t-208 69.5t-176.5 132t-73 233q0 174 139.5 297t362.5 123q88 0 170 -20.5t134.5 -48t92 -56t56.5 -49.5l18 -20l-184 -195q-12 14 -33.5 34.5t-90.5 54.5t-142 34q-88 0 -141.5 -45t-53.5 -109q0 -72 72.5 -115.5t176 -73.5t208 -70
t177.5 -132t73 -233q0 -199 -144.5 -325t-398.5 -126q-100 0 -193.5 24.5t-154 58.5t-106.5 69t-66 59l-23 25l185 184q14 -16 39.5 -41.5t113.5 -68.5t184 -43q111 0 173.5 52t62.5 132zM481 1608l164 307h287l-225 -307h-226z" />
    <glyph glyph-name="sacute" unicode="&#x15b;" horiz-adv-x="931" 
d="M819 870l-143 -163q-6 8 -19.5 22t-56.5 36.5t-88 22.5q-57 0 -90 -24.5t-33 -56.5q0 -39 47 -65t114.5 -46.5t136.5 -49t116 -92t47 -157.5q0 -135 -106.5 -226t-292.5 -91q-80 0 -152 19t-117 46t-78.5 53.5t-48.5 44.5l-14 21l154 153q8 -12 25.5 -30.5t73.5 -50
t116 -31.5q66 0 99.5 25.5t33.5 66.5t-47 68.5t-116 48t-136.5 49.5t-114.5 90t-47 154q0 121 112.5 219t276.5 98q104 0 191.5 -39t121.5 -76zM338 1137l164 307h286l-225 -307h-225z" />
    <glyph glyph-name="Scedilla" unicode="&#x15e;" 
d="M809 420q0 72 -72.5 116t-177 73.5t-208 69.5t-176.5 132t-73 233q0 174 139.5 297t362.5 123q88 0 170 -20.5t134.5 -48t92 -56t56.5 -49.5l18 -20l-184 -195q-12 14 -33.5 34.5t-90.5 54.5t-142 34q-88 0 -141.5 -45t-53.5 -109q0 -72 72.5 -115.5t176 -73.5t208 -70
t177.5 -132t73 -233q0 -184 -126 -307t-349 -142l-37 -73q8 0 20 -1t44 -10.5t56.5 -26t44 -52t19.5 -84.5q0 -86 -60.5 -140.5t-164.5 -54.5q-61 0 -117.5 22.5t-81.5 47.5l-27 22l62 113q61 -51 143 -51q72 0 72 51t-72 51l-51 -10l-51 61l61 137q-88 8 -168 35t-133 59.5
t-93 63.5t-58 53l-19 21l185 184q14 -16 39.5 -41.5t113.5 -68.5t184 -43q111 0 173.5 52t62.5 132z" />
    <glyph glyph-name="scedilla" unicode="&#x15f;" horiz-adv-x="931" 
d="M819 870l-143 -163q-6 8 -19.5 22t-56.5 36.5t-88 22.5q-57 0 -90 -24.5t-33 -56.5q0 -39 47 -65t114.5 -46.5t136.5 -49t116 -92t47 -157.5q0 -123 -90 -211t-248 -102l-41 -86q8 0 20.5 -1t44 -10.5t56 -26t44 -52t19.5 -84.5q0 -86 -60 -140.5t-165 -54.5
q-61 0 -117.5 22.5t-83.5 47.5l-24 22l61 113q61 -51 144 -51q72 0 71.5 51t-71.5 51l-52 -10l-51 61l66 150q-102 12 -185.5 56t-113.5 83l-33 39l154 153q8 -12 25.5 -30.5t73.5 -50t116 -31.5q66 0 99.5 25.5t33.5 66.5t-47 68.5t-116 48t-136.5 49.5t-114.5 90t-47 154
q0 121 112.5 219t276.5 98q104 0 191.5 -39t121.5 -76z" />
    <glyph glyph-name="Scaron" unicode="&#x160;" 
d="M809 420q0 72 -72.5 116t-177 73.5t-208 69.5t-176.5 132t-73 233q0 174 139.5 297t362.5 123q88 0 170 -20.5t134.5 -48t92 -56t56.5 -49.5l18 -20l-184 -195q-12 14 -33.5 34.5t-90.5 54.5t-142 34q-88 0 -141.5 -45t-53.5 -109q0 -72 72.5 -115.5t176 -73.5t208 -70
t177.5 -132t73 -233q0 -199 -144.5 -325t-398.5 -126q-100 0 -193.5 24.5t-154 58.5t-106.5 69t-66 59l-23 25l185 184q14 -16 39.5 -41.5t113.5 -68.5t184 -43q111 0 173.5 52t62.5 132zM973 1915l-246 -307h-246l-245 307h247l121 -164l123 164h246z" />
    <glyph glyph-name="scaron" unicode="&#x161;" horiz-adv-x="931" 
d="M819 870l-143 -163q-6 8 -19.5 22t-56.5 36.5t-88 22.5q-57 0 -90 -24.5t-33 -56.5q0 -39 47 -65t114.5 -46.5t136.5 -49t116 -92t47 -157.5q0 -135 -106.5 -226t-292.5 -91q-80 0 -152 19t-117 46t-78.5 53.5t-48.5 44.5l-14 21l154 153q8 -12 25.5 -30.5t73.5 -50
t116 -31.5q66 0 99.5 25.5t33.5 66.5t-47 68.5t-116 48t-136.5 49.5t-114.5 90t-47 154q0 121 112.5 219t276.5 98q104 0 191.5 -39t121.5 -76zM829 1444l-245 -307h-246l-246 307h248l121 -164l123 164h245z" />
    <glyph glyph-name="uni0162" unicode="&#x162;" horiz-adv-x="1208" 
d="M41 1434h1126v-277h-409v-1157h-307v1157h-410v277zM379 -471l92 307h256l-143 -307h-205z" />
    <glyph glyph-name="uni0163" unicode="&#x163;" horiz-adv-x="829" 
d="M246 1116v184h246v-317h204v-246h-204v-399q0 -47 34.5 -80t87.5 -33q27 0 52.5 5.5t38.5 11.5l12 4v-236q-82 -31 -185 -30q-317 0 -317 348v409h-174v246h92q47 0 80 37t33 96zM256 -471l92 307h256l-143 -307h-205z" />
    <glyph glyph-name="Tcaron" unicode="&#x164;" horiz-adv-x="1208" 
d="M41 1434h1126v-277h-409v-1157h-307v1157h-410v277zM973 1915l-246 -307h-246l-245 307h247l121 -164l123 164h246z" />
    <glyph glyph-name="tcaron" unicode="&#x165;" horiz-adv-x="870" 
d="M246 1116v184h246v-317h204v-246h-204v-399q0 -47 34.5 -80t87.5 -33q27 0 52.5 5.5t38.5 11.5l12 4v-236q-82 -31 -185 -30q-317 0 -317 348v409h-174v246h92q47 0 80 37t33 96zM645 1126l92 308h256l-143 -308h-205z" />
    <glyph glyph-name="Umacron" unicode="&#x16a;" horiz-adv-x="1597" 
d="M799 246q131 0 224 97t93 241v850h307v-850q0 -262 -178 -438.5t-446.5 -176.5t-446.5 176.5t-178 438.5v850h307v-850q0 -143 93.5 -240.5t224.5 -97.5zM1126 1874v-205h-655v205h655z" />
    <glyph glyph-name="umacron" unicode="&#x16b;" 
d="M799 0v102q-12 -14 -34 -34.5t-96.5 -54t-156.5 -33.5q-172 0 -280.5 115.5t-108.5 307.5v601h276v-574q0 -84 55.5 -139t139.5 -55q94 0 149.5 61t55.5 174v533h276v-1004h-276zM922 1403v-205h-656v205h656z" />
    <glyph glyph-name="Uring" unicode="&#x16e;" horiz-adv-x="1597" 
d="M799 246q131 0 224 97t93 241v850h307v-850q0 -262 -178 -438.5t-446.5 -176.5t-446.5 176.5t-178 438.5v850h307v-850q0 -143 93.5 -240.5t224.5 -97.5zM717 1782q0 -82 82 -82t82 82t-82 82t-82 -82zM1034 1782q0 -92 -68.5 -159t-167 -67t-167 67t-68.5 159
t68.5 158.5t167 66.5t167 -66.5t68.5 -158.5z" />
    <glyph glyph-name="uring" unicode="&#x16f;" 
d="M799 0v102q-12 -14 -34 -34.5t-96.5 -54t-156.5 -33.5q-172 0 -280.5 115.5t-108.5 307.5v601h276v-574q0 -84 55.5 -139t139.5 -55q94 0 149.5 61t55.5 174v533h276v-1004h-276zM512 1331q0 -82 82 -82t82 82t-82 82t-82 -82zM829 1331q0 -92 -68.5 -158.5t-166.5 -66.5
t-167 66.5t-69 158.5t69 158.5t167 66.5t166.5 -66.5t68.5 -158.5z" />
    <glyph glyph-name="Uhungarumlaut" unicode="&#x170;" horiz-adv-x="1597" 
d="M799 246q131 0 224 97t93 241v850h307v-850q0 -262 -178 -438.5t-446.5 -176.5t-446.5 176.5t-178 438.5v850h307v-850q0 -143 93.5 -240.5t224.5 -97.5zM492 1608l163 307h277l-236 -307h-204zM881 1608l163 307h277l-236 -307h-204z" />
    <glyph glyph-name="uhungarumlaut" unicode="&#x171;" 
d="M799 0v102q-12 -14 -34 -34.5t-96.5 -54t-156.5 -33.5q-172 0 -280.5 115.5t-108.5 307.5v601h276v-574q0 -84 55.5 -139t139.5 -55q94 0 149.5 61t55.5 174v533h276v-1004h-276zM276 1137l164 307h277l-236 -307h-205zM666 1137l163 307h277l-236 -307h-204z" />
    <glyph glyph-name="Uogonek" unicode="&#x172;" horiz-adv-x="1597" 
d="M799 246q131 0 224 97t93 241v850h307v-850q0 -236 -147.5 -405t-378.5 -202q-57 -98 -57 -182q0 -82 92 -82q27 0 52.5 5.5t37.5 11.5l12 4v-154q-61 -31 -164 -31q-98 0 -161.5 60.5t-63.5 148.5q0 111 94 215q-246 20 -405.5 191.5t-159.5 419.5v850h307v-850
q0 -143 93.5 -240.5t224.5 -97.5z" />
    <glyph glyph-name="uogonek" unicode="&#x173;" 
d="M799 0v102q-12 -14 -34 -34.5t-96.5 -54t-156.5 -33.5q-172 0 -280.5 115.5t-108.5 307.5v601h276v-574q0 -84 55.5 -139t139.5 -55q94 0 149.5 61t55.5 174v533h276v-1004h-133q-72 -102 -72 -205q0 -82 93 -82q27 0 52 5.5t38 11.5l12 4v-154q-61 -31 -164 -31
q-98 0 -161.5 60.5t-63.5 148.5q0 61 30.5 122t61.5 91z" />
    <glyph glyph-name="Ydieresis" unicode="&#x178;" horiz-adv-x="1372" 
d="M348 1434l338 -615l338 615h328l-512 -922v-512h-308v512l-512 922h328zM317 1751q0 61 46.5 107.5t107.5 46.5t107.5 -46.5t46.5 -107.5t-46.5 -107.5t-107.5 -46.5t-107.5 46.5t-46.5 107.5zM768 1751q0 61 46 107.5t107.5 46.5t107.5 -46.5t46 -107.5t-46 -107.5
t-107.5 -46.5t-107.5 46.5t-46 107.5z" />
    <glyph glyph-name="Zacute" unicode="&#x179;" horiz-adv-x="1331" 
d="M829 1157h-696v277h1075v-277l-727 -881h748v-276h-1127v276zM553 1608l164 307h287l-226 -307h-225z" />
    <glyph glyph-name="zacute" unicode="&#x17a;" horiz-adv-x="1024" 
d="M911 1004v-246l-491 -512h512v-246h-860v246l491 512h-471v246h819zM389 1137l164 307h287l-226 -307h-225z" />
    <glyph glyph-name="Zdotaccent" unicode="&#x17b;" horiz-adv-x="1331" 
d="M829 1157h-696v277h1075v-277l-727 -881h748v-276h-1127v276zM829 1761.5q0 -69.5 -44 -111.5t-119 -42q-70 0 -112 42t-42 111.5t42 111.5t112 42q76 0 119.5 -42t43.5 -111.5z" />
    <glyph glyph-name="zdotaccent" unicode="&#x17c;" horiz-adv-x="1024" 
d="M911 1004v-246l-491 -512h512v-246h-860v246l491 512h-471v246h819zM666 1290.5q0 -69.5 -44 -111.5t-120 -42q-70 0 -112 42t-42 111.5t42 111.5t112 42q76 0 120 -42t44 -111.5z" />
    <glyph glyph-name="Zcaron" unicode="&#x17d;" horiz-adv-x="1331" 
d="M829 1157h-696v277h1075v-277l-727 -881h748v-276h-1127v276zM1024 1915l-246 -307h-246l-245 307h248l120 -164l123 164h246z" />
    <glyph glyph-name="zcaron" unicode="&#x17e;" horiz-adv-x="1024" 
d="M911 1004v-246l-491 -512h512v-246h-860v246l491 512h-471v246h819zM860 1444l-246 -307h-245l-246 307h248l121 -164l122 164h246z" />
    <glyph glyph-name="florin" unicode="&#x192;" horiz-adv-x="788" 
d="M512 614l-135 -696q-33 -176 -118 -262t-249 -86q-37 0 -74.5 5t-58.5 11l-20 4v236q51 -20 102 -21q121 0 143 113l134 696h-134v246h174l43 246q31 174 117 261t250 87q37 0 75 -5t58 -11l21 -4v-236q-51 20 -103 21q-125 0 -143 -113l-41 -246h195v-246h-236z" />
    <glyph glyph-name="uni0218" unicode="&#x218;" 
d="M809 420q0 72 -72.5 116t-177 73.5t-208 69.5t-176.5 132t-73 233q0 174 139.5 297t362.5 123q88 0 170 -20.5t134.5 -48t92 -56t56.5 -49.5l18 -20l-184 -195q-12 14 -33.5 34.5t-90.5 54.5t-142 34q-88 0 -141.5 -45t-53.5 -109q0 -72 72.5 -115.5t176 -73.5t208 -70
t177.5 -132t73 -233q0 -199 -144.5 -325t-398.5 -126q-100 0 -193.5 24.5t-154 58.5t-106.5 69t-66 59l-23 25l185 184q14 -16 39.5 -41.5t113.5 -68.5t184 -43q111 0 173.5 52t62.5 132zM389 -471l92 307h256l-143 -307h-205z" />
    <glyph glyph-name="uni0219" unicode="&#x219;" horiz-adv-x="931" 
d="M819 870l-143 -163q-6 8 -19.5 22t-56.5 36.5t-88 22.5q-57 0 -90 -24.5t-33 -56.5q0 -39 47 -65t114.5 -46.5t136.5 -49t116 -92t47 -157.5q0 -135 -106.5 -226t-292.5 -91q-80 0 -152 19t-117 46t-78.5 53.5t-48.5 44.5l-14 21l154 153q8 -12 25.5 -30.5t73.5 -50
t116 -31.5q66 0 99.5 25.5t33.5 66.5t-47 68.5t-116 48t-136.5 49.5t-114.5 90t-47 154q0 121 112.5 219t276.5 98q104 0 191.5 -39t121.5 -76zM246 -471l92 307h256l-143 -307h-205z" />
    <glyph glyph-name="uni021A" unicode="&#x21a;" horiz-adv-x="1208" 
d="M41 1434h1126v-277h-409v-1157h-307v1157h-410v277zM379 -471l92 307h256l-143 -307h-205z" />
    <glyph glyph-name="uni021B" unicode="&#x21b;" horiz-adv-x="829" 
d="M246 1116v184h246v-317h204v-246h-204v-399q0 -47 34.5 -80t87.5 -33q27 0 52.5 5.5t38.5 11.5l12 4v-236q-82 -31 -185 -30q-317 0 -317 348v409h-174v246h92q47 0 80 37t33 96zM256 -471l92 307h256l-143 -307h-205z" />
    <glyph glyph-name="uni02BC" unicode="&#x2bc;" horiz-adv-x="471" 
d="M61 1137l93 307h256l-144 -307h-205z" />
    <glyph glyph-name="circumflex" unicode="&#x2c6;" horiz-adv-x="860" 
d="M553 1444l246 -307h-246l-123 163l-123 -163h-246l246 307h246z" />
    <glyph glyph-name="caron" unicode="&#x2c7;" horiz-adv-x="860" 
d="M799 1444l-246 -307h-246l-246 307h248l121 -164l123 164h246z" />
    <glyph glyph-name="breve" unicode="&#x2d8;" horiz-adv-x="778" 
d="M389 1321q53 0 88 35t35 88h205q0 -131 -92.5 -219t-235.5 -88t-235.5 88t-92.5 219h205q0 -53 35 -88t88 -35z" />
    <glyph glyph-name="dotaccent" unicode="&#x2d9;" horiz-adv-x="440" 
d="M379 1310.5q0 -69.5 -44 -111.5t-120 -42q-70 0 -112 42t-42 111.5t42 111.5t112 42q76 0 120 -42t44 -111.5z" />
    <glyph glyph-name="ring" unicode="&#x2da;" horiz-adv-x="593" 
d="M215 1239q0 -82 82 -82t82 82t-82 82t-82 -82zM532 1239q0 -92 -68.5 -158.5t-166.5 -66.5t-167 66.5t-69 158.5t69 158.5t167 66.5t166.5 -66.5t68.5 -158.5z" />
    <glyph glyph-name="ogonek" unicode="&#x2db;" horiz-adv-x="512" 
d="M184 0h144q-72 -102 -72 -205q0 -82 92 -82q27 0 52.5 5.5t37.5 11.5l13 4v-154q-61 -31 -164 -31q-98 0 -162 60.5t-64 148.5q0 61 31 122t62 91z" />
    <glyph glyph-name="tilde" unicode="&#x2dc;" horiz-adv-x="849" 
d="M573 1147q-78 0 -152.5 51t-113.5 51q-72 0 -71 -102h-175q0 156 59.5 231.5t160.5 75.5q76 0 151.5 -56.5t110.5 -56.5q72 0 71 113h174q0 -154 -58.5 -230.5t-156.5 -76.5z" />
    <glyph glyph-name="hungarumlaut" unicode="&#x2dd;" horiz-adv-x="952" 
d="M61 1137l164 307h277l-236 -307h-205zM451 1137l163 307h277l-236 -307h-204z" />
    <glyph glyph-name="uni0401" unicode="&#x401;" horiz-adv-x="1361" 
d="M492 276h768v-276h-1076v1434h1055v-277h-747v-287h583v-276h-583v-318zM346 1755.5q0 61.5 46 107.5t107.5 46t107.5 -46t46 -107.5t-46 -107.5t-107.5 -46t-107.5 46t-46 107.5zM797 1755.5q0 61.5 46 107.5t107.5 46t107.5 -46t46 -107.5t-46 -107.5t-107.5 -46
t-107.5 46t-46 107.5z" />
    <glyph glyph-name="uni0402" unicode="&#x402;" horiz-adv-x="1505" 
d="M1116 461q0 86 -63.5 145.5t-161.5 59.5q-113 0 -184.5 -68t-71.5 -168v-430h-307v1157h-328v277h963v-277h-328v-317q12 12 36.5 28.5t104.5 45t166 28.5q481 0 481 -481q0 -229 -129 -360.5t-352 -131.5h-61v277q115 0 175 57.5t60 157.5z" />
    <glyph glyph-name="uni0403" unicode="&#x403;" horiz-adv-x="1177" 
d="M553 1608l164 307h287l-226 -307h-225zM184 0v1434h973v-277h-665v-1157h-308z" />
    <glyph glyph-name="uni0404" unicode="&#x404;" horiz-adv-x="1546" 
d="M881 1464q113 0 215 -29.5t167.5 -71.5t116 -84t72.5 -71l23 -30l-195 -195q-6 8 -16.5 22.5t-47 49.5t-79.5 61.5t-113 49t-143 22.5q-168 0 -289 -94.5t-162 -233.5h635v-276h-635q41 -147 158 -242.5t293 -95.5q78 0 149.5 21.5t118.5 51t83 59.5t52 52l16 21
l185 -195q-8 -12 -24.5 -31.5t-73 -69t-121 -87t-169 -68.5t-216.5 -31q-328 0 -553.5 219.5t-225.5 528.5t224.5 528t554.5 219z" />
    <glyph glyph-name="uni0405" unicode="&#x405;" 
d="M809 420q0 72 -72.5 116t-177 73.5t-208 69.5t-176.5 132t-73 233q0 174 139.5 297t362.5 123q88 0 170 -20.5t134.5 -48t92 -56t56.5 -49.5l18 -20l-184 -195q-12 14 -33.5 34.5t-90.5 54.5t-142 34q-88 0 -141.5 -45t-53.5 -109q0 -72 72.5 -115.5t176 -73.5t208 -70
t177.5 -132t73 -233q0 -199 -144.5 -325t-398.5 -126q-100 0 -193.5 24.5t-154 58.5t-106.5 69t-66 59l-23 25l185 184q14 -16 39.5 -41.5t113.5 -68.5t184 -43q111 0 173.5 52t62.5 132z" />
    <glyph glyph-name="uni0406" unicode="&#x406;" horiz-adv-x="675" 
d="M184 0v1434h308v-1434h-308z" />
    <glyph glyph-name="uni0407" unicode="&#x407;" horiz-adv-x="675" 
d="M184 0v1434h308v-1434h-308zM-41 1740.5q0 61.5 46 107.5t107.5 46t107.5 -46t46 -107.5t-46 -107.5t-107.5 -46t-107.5 46t-46 107.5zM410 1740.5q0 61.5 46 107.5t107.5 46t107.5 -46t46 -107.5t-46 -107.5t-107.5 -46t-107.5 46t-46 107.5z" />
    <glyph glyph-name="uni0408" unicode="&#x408;" horiz-adv-x="1054" 
d="M573 1434h308v-973q0 -219 -138.5 -355.5t-363.5 -136.5q-109 0 -204 44t-134 87l-41 43l184 185q6 -8 19.5 -22.5t59.5 -37t95 -22.5q100 0 157.5 57t57.5 158v973z" />
    <glyph glyph-name="uni0409" unicode="&#x409;" horiz-adv-x="2242" 
d="M1638 0h-594v1157h-389v-164q0 -303 -33.5 -508.5t-99 -315.5t-146.5 -155t-192 -45q-45 0 -91 9.5t-68 17.5l-25 8v293q51 -20 102 -21q80 0 129.5 48.5t83 211t33.5 455.5v443h1004v-471h286q221 0 366.5 -138.5t145.5 -343.5t-145.5 -343t-366.5 -138zM1352 276h276
q92 0 153.5 59.5t61.5 145.5t-61.5 145.5t-153.5 59.5h-276v-410z" />
    <glyph glyph-name="uni040A" unicode="&#x40a;" horiz-adv-x="2263" 
d="M1659 0h-594v686h-573v-686h-308v1434h308v-471h573v471h307v-471h287q221 0 366.5 -138.5t145.5 -343.5t-145.5 -343t-366.5 -138zM1372 276h277q92 0 153.5 59.5t61.5 145.5t-61.5 145.5t-153.5 59.5h-277v-410z" />
    <glyph glyph-name="uni040B" unicode="&#x40b;" horiz-adv-x="1566" 
d="M1116 451q0 92 -63.5 153.5t-161.5 61.5q-113 0 -184.5 -63.5t-71.5 -151.5v-451h-307v1157h-328v277h963v-277h-328v-317q12 12 36.5 28.5t104.5 45t166 28.5q481 0 481 -491v-451h-307v451z" />
    <glyph glyph-name="uni040C" unicode="&#x40c;" horiz-adv-x="1454" 
d="M492 1434v-625l563 625h358l-532 -594l573 -840h-358l-420 614l-184 -204v-410h-308v1434h308zM649 1608l164 307h287l-226 -307h-225z" />
    <glyph glyph-name="uni040E" unicode="&#x40e;" horiz-adv-x="1310" 
d="M686 1792q53 0 88 35t35 88h205q0 -139 -91.5 -228.5t-236.5 -89.5t-236.5 89.5t-91.5 228.5h205q0 -53 35 -88t88 -35zM358 1434l338 -676l287 676h328l-502 -1076q-88 -186 -207 -282t-295 -96q-41 0 -82 8t-61 16l-21 6v266q51 -20 123 -20q154 0 236 143l41 72
l-512 963h327z" />
    <glyph glyph-name="uni040F" unicode="&#x40f;" horiz-adv-x="1587" 
d="M1403 1434v-1434h-461v-297h-307v297h-451v1434h308v-1158h604v1158h307z" />
    <glyph glyph-name="uni0410" unicode="&#x410;" horiz-adv-x="1495" 
d="M922 604l-174 471l-175 -471h349zM1024 338h-553l-123 -338h-328l564 1434h327l564 -1434h-328z" />
    <glyph glyph-name="uni0411" unicode="&#x411;" horiz-adv-x="1392" 
d="M492 276h307q82 0 138 52.5t56 122t-56 122t-138 52.5h-307v-349zM809 0h-625v1434h994v-277h-686v-256h317q211 0 351 -132t140 -318.5t-140 -318.5t-351 -132z" />
    <glyph glyph-name="uni0412" unicode="&#x412;" horiz-adv-x="1423" 
d="M834 0h-650v1434h615q195 0 322.5 -114t127.5 -265q0 -57 -16 -108.5t-41 -85.5t-49.5 -58.5t-40.5 -34.5l-17 -10q10 -4 25.5 -11.5t56.5 -37t72 -64.5t56.5 -95.5t25.5 -129.5q0 -172 -137 -296t-350 -124zM492 256h327q84 0 139.5 53t55.5 131t-55.5 131.5
t-139.5 53.5h-327v-369zM778 1178h-286v-308h286q76 0 120 42t44 112t-44 112t-120 42z" />
    <glyph glyph-name="uni0413" unicode="&#x413;" horiz-adv-x="1177" 
d="M184 0v1434h973v-277h-665v-1157h-308z" />
    <glyph glyph-name="uni0414" unicode="&#x414;" horiz-adv-x="1525" 
d="M0 276h82q8 8 23.5 25.5t54.5 80t68.5 137.5t54 203t24.5 271v441h993v-1158h175v-573h-308v297h-860v-297h-307v573zM614 993q0 -143 -23.5 -270t-56 -205t-65.5 -135t-55 -82l-25 -25h604v881h-379v-164z" />
    <glyph glyph-name="uni0415" unicode="&#x415;" horiz-adv-x="1361" 
d="M492 276h768v-276h-1076v1434h1055v-277h-747v-287h583v-276h-583v-318z" />
    <glyph glyph-name="uni0416" unicode="&#x416;" horiz-adv-x="2109" 
d="M901 481l-123 133l-420 -614h-358l573 840l-532 594h358l502 -553v553h307v-553l502 553h358l-532 -594l573 -840h-358l-420 614l-123 -133v-481h-307v481z" />
    <glyph glyph-name="uni0417" unicode="&#x417;" horiz-adv-x="1290" 
d="M922 758q10 -4 28.5 -11.5t64.5 -37t80.5 -66.5t63.5 -102.5t29 -141.5q0 -180 -153.5 -305t-420.5 -125q-102 0 -198.5 25.5t-159.5 61.5t-111.5 72t-70.5 60l-23 27l185 184l16 -16q10 -10 45 -37t74 -47t99 -36.5t124 -16.5q127 0 196.5 53t69.5 131q0 80 -64.5 132
t-191.5 52h-184v267h174q104 0 159.5 43t55.5 110q0 66 -58.5 110t-166.5 44q-78 0 -152 -33t-108 -65l-37 -35l-185 194q6 8 20.5 22.5t62.5 52.5t102.5 65.5t143.5 51t183 23.5q236 0 379.5 -118.5t143.5 -280.5q0 -68 -22.5 -124t-54.5 -88t-62.5 -55.5t-53.5 -31.5z" />
    <glyph glyph-name="uni0418" unicode="&#x418;" horiz-adv-x="1648" 
d="M1464 0h-307v911l-706 -911h-267v1434h308v-912l706 912h266v-1434z" />
    <glyph glyph-name="uni0419" unicode="&#x419;" horiz-adv-x="1648" 
d="M819 1792q53 0 88 35t35 88h205q0 -139 -91 -228.5t-236.5 -89.5t-236.5 89.5t-91 228.5h204q0 -53 35 -88t88 -35zM1464 0h-307v911l-706 -911h-267v1434h308v-912l706 912h266v-1434z" />
    <glyph glyph-name="uni041A" unicode="&#x41a;" horiz-adv-x="1454" 
d="M492 1434v-625l563 625h358l-532 -594l573 -840h-358l-420 614l-184 -204v-410h-308v1434h308z" />
    <glyph glyph-name="uni041B" unicode="&#x41b;" horiz-adv-x="1566" 
d="M1382 1434v-1434h-307v1157h-420v-164q0 -303 -33.5 -508.5t-99 -315.5t-146.5 -155t-192 -45q-45 0 -91 9.5t-68 17.5l-25 8v293q51 -20 102 -21q80 0 129.5 48.5t83 211t33.5 455.5v443h1034z" />
    <glyph glyph-name="uni041C" unicode="&#x41c;" horiz-adv-x="1904" 
d="M952 809l496 625h272v-1434h-307v956l-461 -587l-460 583v-952h-308v1434h277z" />
    <glyph glyph-name="uni041D" unicode="&#x41d;" horiz-adv-x="1597" 
d="M1413 1434v-1434h-307v584h-614v-584h-308v1434h308v-574h614v574h307z" />
    <glyph glyph-name="uni041E" unicode="&#x41e;" horiz-adv-x="1761" 
d="M420 716.5q0 -198.5 134 -334.5t326.5 -136t326.5 136t134 334.5t-134 335t-326.5 136.5t-326.5 -136.5t-134 -335zM102 717q0 309 225.5 528t553 219t553 -219t225.5 -528t-225.5 -528.5t-553 -219.5t-553 219.5t-225.5 528.5z" />
    <glyph glyph-name="uni041F" unicode="&#x41f;" horiz-adv-x="1587" 
d="M1403 1434v-1434h-307v1157h-604v-1157h-308v1434h1219z" />
    <glyph glyph-name="uni0420" unicode="&#x420;" horiz-adv-x="1392" 
d="M184 1434h604q221 0 366.5 -138.5t145.5 -343t-145 -343t-367 -138.5h-296v-471h-308v1434zM778 1157h-286v-409h286q92 0 153.5 59t61.5 145t-61.5 145.5t-153.5 59.5z" />
    <glyph glyph-name="uni0421" unicode="&#x421;" horiz-adv-x="1546" 
d="M881 1464q113 0 215 -29.5t167.5 -71.5t116 -84t72.5 -71l23 -30l-195 -195q-6 8 -16.5 22.5t-47 49.5t-79.5 61.5t-113 49t-143 22.5q-201 0 -336 -135t-135 -336t135 -336t336 -135q78 0 149.5 21.5t118.5 51t83 59.5t52 52l16 21l185 -195q-8 -12 -24.5 -31.5t-73 -69
t-121 -87t-169 -68.5t-216.5 -31q-328 0 -553.5 219.5t-225.5 528.5t225.5 528t553.5 219z" />
    <glyph glyph-name="uni0422" unicode="&#x422;" horiz-adv-x="1208" 
d="M41 1434h1126v-277h-409v-1157h-307v1157h-410v277z" />
    <glyph glyph-name="uni0423" unicode="&#x423;" horiz-adv-x="1310" 
d="M358 1434l338 -676l287 676h328l-502 -1076q-88 -186 -207 -282t-295 -96q-41 0 -82 8t-61 16l-21 6v266q51 -20 123 -20q154 0 236 143l41 72l-512 963h327z" />
    <glyph glyph-name="uni0424" unicode="&#x424;" horiz-adv-x="1781" 
d="M389 737.5q0 -139.5 94.5 -229.5t253.5 -98v655q-160 -8 -254 -98t-94 -229.5zM1044 143v-184h-307v184q-287 8 -471 180.5t-184 414t184.5 413.5t470.5 180v154h307v-154q287 -8 471.5 -180t184.5 -413.5t-184.5 -414t-471.5 -180.5zM1393 737.5q0 139.5 -94.5 229.5
t-254.5 98v-655q160 8 254.5 98t94.5 229.5z" />
    <glyph glyph-name="uni0425" unicode="&#x425;" horiz-adv-x="1433" 
d="M717 522l-348 -522h-349l502 748l-461 686h349l307 -461l307 461h348l-461 -686l502 -748h-348z" />
    <glyph glyph-name="uni0426" unicode="&#x426;" horiz-adv-x="1607" 
d="M184 0v1434h308v-1158h583v1158h307v-1158h174v-573h-307v297h-1065z" />
    <glyph glyph-name="uni0427" unicode="&#x427;" horiz-adv-x="1505" 
d="M471 1434v-441q0 -129 66.5 -197.5t189.5 -68.5q76 0 147.5 25.5t104.5 50.5l35 26v605h307v-1434h-307v532q-133 -82 -338 -81q-240 0 -376 142t-136 400v441h307z" />
    <glyph glyph-name="uni0428" unicode="&#x428;" horiz-adv-x="2170" 
d="M1987 1434v-1434h-1803v1434h308v-1158h440v1158h307v-1158h440v1158h308z" />
    <glyph glyph-name="uni0429" unicode="&#x429;" horiz-adv-x="2211" 
d="M1987 1434v-1158h174v-573h-308v297h-1669v1434h308v-1158h440v1158h307v-1158h440v1158h308z" />
    <glyph glyph-name="uni042A" unicode="&#x42a;" horiz-adv-x="1525" 
d="M922 0h-584v1157h-338v277h645v-471h277q221 0 366.5 -138.5t145.5 -343.5t-145.5 -343t-366.5 -138zM645 276h266q92 0 153.5 59.5t61.5 145.5t-61 145.5t-154 59.5h-266v-410z" />
    <glyph glyph-name="uni042B" unicode="&#x42b;" horiz-adv-x="1935" 
d="M1751 1434v-1434h-307v1434h307zM768 0h-584v1434h308v-471h276q221 0 366.5 -138.5t145.5 -343.5t-145.5 -343t-366.5 -138zM492 276h266q92 0 153.5 59.5t61.5 145.5t-61.5 145.5t-153.5 59.5h-266v-410z" />
    <glyph glyph-name="uni042C" unicode="&#x42c;" horiz-adv-x="1392" 
d="M788 0h-604v1434h308v-471h296q221 0 366.5 -138.5t145.5 -343.5t-145.5 -343t-366.5 -138zM492 276h286q92 0 153.5 59.5t61.5 145.5t-61.5 145.5t-153.5 59.5h-286v-410z" />
    <glyph glyph-name="uni042D" unicode="&#x42d;" horiz-adv-x="1546" 
d="M666 1464q330 0 554 -219t224 -528t-225.5 -528.5t-552.5 -219.5q-113 0 -216.5 30t-171 72t-118.5 84t-74 70l-25 31l185 195q6 -8 17 -22.5t51 -49.5t84 -61.5t117 -49t151 -22.5q176 0 292.5 95t157.5 243h-635v276h635q-41 139 -161.5 233.5t-288.5 94.5
q-74 0 -142.5 -21.5t-113.5 -51.5t-79 -59.5t-48 -51.5l-17 -21l-194 195q8 12 23.5 31.5t70.5 68.5t118.5 87t166 68.5t215.5 30.5z" />
    <glyph glyph-name="uni042E" unicode="&#x42e;" horiz-adv-x="2232" 
d="M2130 716.5q0 -313.5 -213 -530.5t-514 -217q-276 0 -473 176.5t-244 438.5h-194v-584h-308v1434h308v-564h194q47 248 244.5 421t472.5 173q301 0 514 -217t213 -530.5zM1823 717q0 203 -124 337t-296 134t-296 -134t-124 -337t124 -337t296 -134t296 134t124 337z" />
    <glyph glyph-name="uni042F" unicode="&#x42f;" horiz-adv-x="1433" 
d="M1249 1434v-1434h-307v502h-266l-277 -502h-327l307 543q-10 4 -27.5 13t-61.5 46t-78 80t-61.5 119t-27.5 162q0 199 139 335t352 136h635zM430 963q0 -78 55.5 -131.5t139.5 -53.5h317v379h-317q-84 0 -139.5 -55t-55.5 -139z" />
    <glyph glyph-name="uni0430" unicode="&#x430;" horiz-adv-x="1095" 
d="M676 0v102q-12 -14 -33.5 -34.5t-93.5 -54t-150 -33.5q-150 0 -244 83.5t-94 202.5q0 123 79 205t218 107l318 57q0 63 -46 103t-128 40q-68 0 -124 -25.5t-79 -52.5l-23 -24l-153 153q6 8 16.5 21.5t47 46.5t79.5 58.5t113 47t143 21.5q190 0 310 -113.5t120 -285.5
v-625h-276zM471 205q94 0 149.5 59.5t55.5 165.5v31l-225 -41q-113 -18 -113 -113q0 -102 133 -102z" />
    <glyph glyph-name="uni0431" unicode="&#x431;" horiz-adv-x="1239" 
d="M1137 481q0 -211 -141.5 -356t-360.5 -145q-246 0 -394.5 171t-148.5 484q0 350 133 529t379 229q109 23 199 50t125 44l35 18l122 -205q-8 -8 -28.5 -21t-123 -51t-247.5 -71q-131 -29 -213 -111.5t-104 -205.5q4 6 13 15t38 33.5t61.5 44t82.5 35t102 15.5
q186 0 328.5 -148.5t142.5 -353.5zM399 481.5q0 -112.5 68 -184.5t168 -72q94 0 159.5 72t65.5 184.5t-65.5 184t-159.5 71.5q-100 0 -168 -71.5t-68 -184z" />
    <glyph glyph-name="uni0432" unicode="&#x432;" horiz-adv-x="1085" 
d="M123 1004h502q150 0 244 -82t94 -195q0 -68 -31 -119t-62 -67l-30 -19q6 -2 17 -6t40 -22.5t50.5 -42t39 -64.5t17.5 -90q0 -127 -97.5 -212t-261.5 -85h-522v1004zM625 430h-226v-205h226q47 0 74.5 29t27.5 74t-27.5 73.5t-74.5 28.5zM686 696q0 82 -82 82h-205v-164
h205q82 0 82 82z" />
    <glyph glyph-name="uni0433" unicode="&#x433;" horiz-adv-x="880" 
d="M850 1004v-256h-451v-748h-276v1004h727z" />
    <glyph glyph-name="uni0434" unicode="&#x434;" horiz-adv-x="1177" 
d="M-10 246h61q6 6 17.5 17t40 54t50 94.5t39 136.5t17.5 179v277h768v-758h133v-482h-276v236h-574v-236h-276v482zM471 758v-62q0 -119 -32.5 -231.5t-65.5 -165.5l-35 -53h369v512h-236z" />
    <glyph glyph-name="uni0435" unicode="&#x435;" horiz-adv-x="1167" 
d="M1075 410h-727q16 -82 87 -138.5t179 -56.5q78 0 144.5 30.5t93.5 61.5l29 31l143 -184l-18 -18q-13 -13 -54 -43t-87 -53.5t-119.5 -41.5t-151.5 -18q-221 0 -377 153.5t-156 368.5t154 368.5t369 153.5t358 -143.5t143 -358.5zM584 788q-88 0 -149.5 -51t-86.5 -133
h461q-16 80 -76.5 132t-148.5 52z" />
    <glyph glyph-name="uni0436" unicode="&#x436;" horiz-adv-x="1607" 
d="M655 0v287l-92 102l-266 -389h-307l399 573l-379 431h318l327 -379v379h277v-379l328 379h317l-379 -431l399 -573h-307l-266 389l-92 -102v-287h-277z" />
    <glyph glyph-name="uni0437" unicode="&#x437;" horiz-adv-x="952" 
d="M829 727q0 -45 -16 -83t-40.5 -59.5t-49.5 -37t-41 -19.5l-16 -6q8 -2 22 -7t49 -23.5t61.5 -44t49 -70.5t22.5 -101q0 -123 -112.5 -209.5t-317.5 -86.5q-80 0 -152.5 19t-119.5 46t-82 53.5t-49 44.5l-17 21l154 153q8 -12 26.5 -30.5t80 -50t129.5 -31.5
q80 0 121.5 31.5t41.5 80.5q0 102 -163 103h-103v184h103q66 0 99.5 25.5t33.5 66.5q0 102 -133 103q-49 0 -100.5 -22.5t-78.5 -47.5l-26 -22l-154 153q4 6 14.5 17.5t46 40t76.5 50t110 39t142 17.5q176 0 282.5 -88t106.5 -209z" />
    <glyph glyph-name="uni0438" unicode="&#x438;" horiz-adv-x="1218" 
d="M834 1004h241v-1004h-276v563l-437 -563h-239v1004h276v-564z" />
    <glyph glyph-name="uni0439" unicode="&#x439;" horiz-adv-x="1218" 
d="M594 1321q53 0 88 35t35 88h205q0 -131 -92.5 -219t-235.5 -88t-235.5 88t-92.5 219h205q0 -53 35 -88t88 -35zM834 1004h241v-1004h-276v563l-437 -563h-239v1004h276v-564z" />
    <glyph glyph-name="uni043A" unicode="&#x43a;" horiz-adv-x="1105" 
d="M1075 1004l-379 -431l400 -573h-308l-266 389l-123 -143v-246h-276v1004h276v-410l359 410h317z" />
    <glyph glyph-name="uni043B" unicode="&#x43b;" horiz-adv-x="1177" 
d="M225 1004h809v-1004h-276v758h-266v-62q0 -281 -47.5 -446.5t-122 -223t-189.5 -57.5q-37 0 -72.5 8.5t-52.5 14.5l-18 8v246q31 -10 61 -10q61 0 96 31.5t56.5 141t21.5 318.5v277z" />
    <glyph glyph-name="uni043C" unicode="&#x43c;" horiz-adv-x="1351" 
d="M666 246l-267 348v-594h-276v1004h235l308 -400l307 400h235v-1004h-276v594z" />
    <glyph glyph-name="uni043D" unicode="&#x43d;" horiz-adv-x="1208" 
d="M399 379v-379h-276v1004h276v-379h389v379h277v-1004h-277v379h-389z" />
    <glyph glyph-name="uni043E" unicode="&#x43e;" horiz-adv-x="1208" 
d="M348 501.5q0 -112.5 73 -189t173 -76.5t173 76.5t73 189t-73 189.5t-173 77t-173 -77t-73 -189.5zM1126 502q0 -209 -158.5 -365.5t-373.5 -156.5t-374 156.5t-159 365.5t159 365.5t374 156.5t373.5 -156.5t158.5 -365.5z" />
    <glyph glyph-name="uni043F" unicode="&#x43f;" horiz-adv-x="1208" 
d="M399 758v-758h-276v1004h942v-1004h-277v758h-389z" />
    <glyph glyph-name="uni0440" unicode="&#x440;" horiz-adv-x="1259" 
d="M696 -20q-86 0 -160.5 35.5t-105.5 70.5l-31 37v-553h-276v1434h276v-123q4 6 12.5 15t36 33.5t59.5 44t83 35t106 15.5q195 0 338.5 -151.5t143.5 -370.5t-143.5 -370.5t-338.5 -151.5zM645.5 778q-102.5 0 -174.5 -77.5t-72 -198.5t72 -199t174.5 -78t174 78t71.5 199
t-71.5 198.5t-174 77.5z" />
    <glyph glyph-name="uni0441" unicode="&#x441;" horiz-adv-x="1075" 
d="M61 502q0 209 161 365.5t382 156.5q78 0 148.5 -21.5t115.5 -51t80 -59.5t51 -52l15 -21l-174 -174q-8 14 -26.5 37t-80 59.5t-129.5 36.5q-109 0 -187.5 -81t-78.5 -195.5t79 -195.5t187 -81q68 0 129.5 33t89.5 66l27 34l164 -174q-6 -8 -16.5 -22.5t-48.5 -49t-82 -61
t-114.5 -49t-148.5 -22.5q-221 0 -382 156.5t-161 365.5z" />
    <glyph glyph-name="uni0442" unicode="&#x442;" horiz-adv-x="972" 
d="M20 737v267h912v-267h-318v-737h-276v737h-318z" />
    <glyph glyph-name="uni0443" unicode="&#x443;" horiz-adv-x="1064" 
d="M358 -61l31 71l-389 994h287l235 -666l236 666h286l-399 -1065q-137 -369 -389 -369q-45 0 -89 8t-65 16l-20 7v245q41 -20 102 -20q125 0 174 113z" />
    <glyph glyph-name="uni0444" unicode="&#x444;" horiz-adv-x="1546" 
d="M625 215v553q-137 -8 -212 -81t-75 -195.5t75 -195.5t212 -81zM901 -31v-399h-276v399q-242 8 -403 160t-161 362.5t161 362.5t403 160v420h276v-420q242 -8 402.5 -160t160.5 -362.5t-160.5 -362.5t-402.5 -160zM901 768v-553q137 8 212 81t75 195.5t-75 195.5t-212 81z
" />
    <glyph glyph-name="uni0445" unicode="&#x445;" horiz-adv-x="1044" 
d="M512 317l-215 -317h-297l338 512l-318 492h308l184 -297l184 297h308l-318 -492l338 -512h-297z" />
    <glyph glyph-name="uni0446" unicode="&#x446;" 
d="M123 0v1004h276v-758h359v758h276v-758h133v-482h-276v236h-768z" />
    <glyph glyph-name="uni0447" unicode="&#x447;" horiz-adv-x="1136" 
d="M717 0v338q-102 -72 -236 -72q-172 0 -275.5 109.5t-103.5 300.5v328h277v-308q0 -76 47 -125t117 -49q49 0 93 15.5t62 31.5l19 15v420h276v-1004h-276z" />
    <glyph glyph-name="uni0448" unicode="&#x448;" horiz-adv-x="1638" 
d="M123 0v1004h276v-758h277v758h276v-758h277v758h276v-1004h-1382z" />
    <glyph glyph-name="uni0449" unicode="&#x449;" horiz-adv-x="1699" 
d="M123 0v1004h276v-758h277v758h276v-758h277v758h276v-758h133v-482h-276v236h-1239z" />
    <glyph glyph-name="uni044A" unicode="&#x44a;" horiz-adv-x="1136" 
d="M1065 348.5q0 -155.5 -103.5 -252t-285.5 -96.5h-451v737h-235v267h512v-308h174q182 0 285.5 -96t103.5 -251.5zM502 225h164q53 0 87.5 35t34.5 88t-34.5 88t-87.5 35h-164v-246z" />
    <glyph glyph-name="uni044B" unicode="&#x44b;" horiz-adv-x="1505" 
d="M1362 1004v-1004h-277v1004h277zM399 225h164q53 0 88 35t35 88t-35 88t-88 35h-164v-246zM963 348.5q0 -155.5 -103.5 -252t-286.5 -96.5h-450v1004h276v-308h174q182 0 286 -96t104 -251.5z" />
    <glyph glyph-name="uni044C" unicode="&#x44c;" horiz-adv-x="1044" 
d="M399 225h174q53 0 88 35t35 88t-34.5 88t-88.5 35h-174v-246zM973 348.5q0 -155.5 -103.5 -252t-285.5 -96.5h-461v1004h276v-308h185q182 0 285.5 -96t103.5 -251.5z" />
    <glyph glyph-name="uni044D" unicode="&#x44d;" horiz-adv-x="1064" 
d="M983 502q0 -209 -160.5 -365.5t-382.5 -156.5q-74 0 -143.5 21.5t-115.5 51t-82 59t-52 52.5l-16 20l143 154q4 -6 11.5 -14.5t33 -32t54 -41t74.5 -31.5t93 -14q90 0 154.5 49t83.5 98l18 47h-409v205h409q-2 8 -7 21.5t-24.5 46.5t-45 58.5t-73.5 47t-106 21.5
q-78 0 -141 -33t-90 -66l-25 -34l-153 153q6 8 16 22.5t49 49.5t82 61.5t115 49t147 22.5q221 0 382 -156.5t161 -365.5z" />
    <glyph glyph-name="uni044E" unicode="&#x44e;" horiz-adv-x="1679" 
d="M1587 502q0 -215 -153.5 -368.5t-368.5 -153.5q-190 0 -334.5 121.5t-177.5 277.5h-154v-379h-276v1004h276v-379h154q33 156 177 277.5t335 121.5q215 0 368.5 -153.5t153.5 -368.5zM1311 502q0 121 -72 198.5t-174 77.5t-174 -77.5t-72 -198.5t72 -199t174 -78t174 78
t72 199z" />
    <glyph glyph-name="uni044F" unicode="&#x44f;" horiz-adv-x="1095" 
d="M471 1004h481v-1004h-276v297h-144l-184 -297h-297l215 338q-8 4 -20.5 10t-44 33t-56 58.5t-44 87t-19.5 118.5q0 147 111.5 253t277.5 106zM676 768h-184q-61 0 -97.5 -34t-36.5 -89t36 -89t98 -34h184v246z" />
    <glyph glyph-name="uni0451" unicode="&#x451;" horiz-adv-x="1167" 
d="M1075 410h-727q16 -82 87 -138.5t179 -56.5q78 0 144.5 30.5t93.5 61.5l29 31l143 -184l-18 -18q-13 -13 -54 -43t-87 -53.5t-119.5 -41.5t-151.5 -18q-221 0 -377 153.5t-156 368.5t154 368.5t369 153.5t358 -143.5t143 -358.5zM584 788q-88 0 -149.5 -51t-86.5 -133
h461q-16 80 -76.5 132t-148.5 52zM207 1300.5q0 61.5 46 107.5t107.5 46t107.5 -46t46 -107.5t-46 -107.5t-107.5 -46t-107.5 46t-46 107.5zM657 1300.5q0 61.5 46.5 107.5t107.5 46t107.5 -46t46.5 -107.5t-46.5 -107.5t-107.5 -46t-107.5 46t-46.5 107.5z" />
    <glyph glyph-name="uni0452" unicode="&#x452;" horiz-adv-x="1218" 
d="M430 1434v-144h236v-246h-236v-245q12 16 33.5 39.5t96.5 63.5t157 40q174 0 286.5 -127t112.5 -344q0 -238 -132 -370t-370 -132v256q100 0 163 65.5t63 180.5q0 92 -56.5 148.5t-148.5 56.5q-94 0 -149.5 -61.5t-55.5 -174.5v-440h-276v1044h-164v246h164v144h276z" />
    <glyph glyph-name="uni0453" unicode="&#x453;" horiz-adv-x="880" 
d="M358 1137l164 307h287l-225 -307h-226zM850 1004v-256h-451v-748h-276v1004h727z" />
    <glyph glyph-name="uni0454" unicode="&#x454;" horiz-adv-x="1075" 
d="M61 502q0 209 161 365.5t382 156.5q76 0 146.5 -21.5t116.5 -51t81 -59.5t51 -52l15 -21l-154 -153q-4 6 -10 14t-29.5 31.5t-51.5 41t-72 32t-93 14.5q-90 0 -154.5 -49.5t-82.5 -98.5l-19 -47h410v-205h-410q2 -8 7 -21t24.5 -46t45.5 -58.5t74 -47t105 -21.5
q47 0 92 13t76 32.5t53.5 40t34.5 33.5l10 14l144 -154q-6 -8 -17.5 -22.5t-50.5 -49t-83 -61t-114.5 -49t-144.5 -22.5q-221 0 -382 156.5t-161 365.5z" />
    <glyph glyph-name="uni0455" unicode="&#x455;" horiz-adv-x="931" 
d="M819 870l-143 -163q-6 8 -19.5 22t-56.5 36.5t-88 22.5q-57 0 -90 -24.5t-33 -56.5q0 -39 47 -65t114.5 -46.5t136.5 -49t116 -92t47 -157.5q0 -135 -106.5 -226t-292.5 -91q-80 0 -152 19t-117 46t-78.5 53.5t-48.5 44.5l-14 21l154 153q8 -12 25.5 -30.5t73.5 -50
t116 -31.5q66 0 99.5 25.5t33.5 66.5t-47 68.5t-116 48t-136.5 49.5t-114.5 90t-47 154q0 121 112.5 219t276.5 98q104 0 191.5 -39t121.5 -76z" />
    <glyph glyph-name="uni0456" unicode="&#x456;" horiz-adv-x="563" 
d="M410 1004v-1004h-277v1004h277zM430 1290.5q0 -69.5 -44 -111.5t-120 -42q-70 0 -111.5 42t-41.5 111.5t42 111.5t111 42q76 0 120 -42t44 -111.5z" />
    <glyph glyph-name="uni0457" unicode="&#x457;" horiz-adv-x="563" 
d="M-102 1300.5q0 61.5 46 107.5t107.5 46t107.5 -46t46 -107.5t-46 -107.5t-107.5 -46t-107.5 46t-46 107.5zM348 1300.5q0 61.5 46 107.5t107.5 46t107.5 -46t46 -107.5t-46 -107.5t-107.5 -46t-107.5 46t-46 107.5zM410 1004v-1004h-277v1004h277z" />
    <glyph glyph-name="uni0458" unicode="&#x458;" horiz-adv-x="563" 
d="M133 -61v1065h277v-1086q0 -168 -86 -258t-242 -90q-45 0 -89 8t-65 16l-20 7v245q51 -20 102 -20q53 0 88 33t35 80zM430 1290.5q0 -69.5 -44 -111.5t-120 -42q-70 0 -111.5 42t-41.5 111.5t42 111.5t111 42q76 0 120 -42t44 -111.5z" />
    <glyph glyph-name="uni0459" unicode="&#x459;" horiz-adv-x="1658" 
d="M225 1004h789v-328h184q180 0 284.5 -94.5t104.5 -244t-104.5 -243.5t-284.5 -94h-461v758h-245v-62q0 -281 -47.5 -446.5t-122 -223t-189.5 -57.5q-37 0 -72.5 8.5t-52.5 14.5l-18 8v246q31 -10 61 -10q61 0 96 31.5t56.5 141t21.5 318.5v277zM1311 338q0 113 -123 113
h-174v-226h174q123 0 123 113z" />
    <glyph glyph-name="uni045A" unicode="&#x45a;" horiz-adv-x="1679" 
d="M399 430v-430h-276v1004h276v-328h359v328h276v-328h185q180 0 284.5 -94.5t104.5 -244t-104.5 -243.5t-284.5 -94h-461v430h-359zM1331 338q0 113 -123 113h-174v-226h174q123 0 123 113z" />
    <glyph glyph-name="uni045B" unicode="&#x45b;" horiz-adv-x="1239" 
d="M430 1434v-144h236v-246h-236v-245q12 16 33.5 39.5t96.5 63.5t157 40q172 0 280.5 -118.5t108.5 -321.5v-502h-277v471q0 92 -54 148.5t-140 56.5q-94 0 -149.5 -61.5t-55.5 -174.5v-440h-276v1044h-164v246h164v144h276z" />
    <glyph glyph-name="uni045C" unicode="&#x45c;" horiz-adv-x="1105" 
d="M461 1137l164 307h286l-225 -307h-225zM1075 1004l-379 -431l400 -573h-308l-266 389l-123 -143v-246h-276v1004h276v-410l359 410h317z" />
    <glyph glyph-name="uni045E" unicode="&#x45e;" horiz-adv-x="1064" 
d="M358 -61l31 71l-389 994h287l235 -666l236 666h286l-399 -1065q-137 -369 -389 -369q-45 0 -89 8t-65 16l-20 7v245q41 -20 102 -20q125 0 174 113zM532.5 1321q53.5 0 88 35t34.5 88h205q0 -131 -92 -219t-235.5 -88t-235.5 88t-92 219h205q0 -53 34.5 -88t88 -35z" />
    <glyph glyph-name="uni045F" unicode="&#x45f;" horiz-adv-x="1198" 
d="M123 0v1004h276v-758h379v758h277v-1004h-328v-236h-276v236h-328z" />
    <glyph glyph-name="uni0490" unicode="&#x490;" horiz-adv-x="1177" 
d="M870 1434v276h287v-553h-665v-1157h-308v1434h686z" />
    <glyph glyph-name="uni0491" unicode="&#x491;" horiz-adv-x="880" 
d="M123 0v1004h471v215h256v-471h-451v-748h-276z" />
    <glyph glyph-name="uni1E9E" unicode="&#x1e9e;" horiz-adv-x="1382" 
d="M952 840q14 -2 36 -8.5t78 -35t99 -68.5t79 -116.5t36 -171.5q0 -180 -142.5 -310t-359.5 -130h-123v246h103q92 0 148.5 54t56.5 140t-56.5 140.5t-148.5 54.5h-103v225l226 307h-205q-92 0 -148.5 -56t-56.5 -148v-963h-307v963q0 203 140 337t362 134h532v-256z" />
    <glyph glyph-name="endash" unicode="&#x2013;" horiz-adv-x="1013" 
d="M942 721v-240h-870v240h870z" />
    <glyph glyph-name="emdash" unicode="&#x2014;" horiz-adv-x="1505" 
d="M1434 721v-240h-1362v240h1362z" />
    <glyph glyph-name="quoteleft" unicode="&#x2018;" horiz-adv-x="532" 
d="M276 901l-235 133l276 441l175 -103z" />
    <glyph glyph-name="quoteright" unicode="&#x2019;" horiz-adv-x="532" 
d="M256 1475l236 -134l-277 -440l-174 103z" />
    <glyph glyph-name="quotesinglbase" unicode="&#x201a;" horiz-adv-x="532" 
d="M215 297l225 -133l-266 -430l-184 92z" />
    <glyph glyph-name="quotedblleft" unicode="&#x201c;" horiz-adv-x="931" 
d="M266 911l-225 123l276 441l164 -93zM676 911l-225 123l276 441l164 -93z" />
    <glyph glyph-name="quotedblright" unicode="&#x201d;" horiz-adv-x="931" 
d="M666 1475l225 -123l-277 -441l-163 93zM256 1475l225 -123l-276 -441l-164 93z" />
    <glyph glyph-name="quotedblbase" unicode="&#x201e;" horiz-adv-x="921" 
d="M205 297l225 -133l-276 -430l-164 92zM614 297l226 -133l-277 -430l-164 92z" />
    <glyph glyph-name="dagger" unicode="&#x2020;" horiz-adv-x="931" 
d="M348 1178v256h236v-256h235v-215h-235v-615h-236v615h-235v215h235z" />
    <glyph glyph-name="daggerdbl" unicode="&#x2021;" horiz-adv-x="931" 
d="M348 1198v236h236v-236h235v-215h-235v-184h235v-215h-235v-236h-236v236h-235v215h235v184h-235v215h235z" />
    <glyph glyph-name="bullet" unicode="&#x2022;" horiz-adv-x="880" 
d="M184 491.5q0 106.5 74 181.5t182.5 75t182 -75t73.5 -181.5t-73.5 -181t-182 -74.5t-182.5 74.5t-74 181z" />
    <glyph glyph-name="ellipsis" unicode="&#x2026;" horiz-adv-x="1617" 
d="M92 133.5q0 61.5 48 107.5t116 46t116 -46t48 -107.5t-48 -107.5t-116 -46t-116 46t-48 107.5zM645 133.5q0 61.5 48 107.5t116 46t116 -46t48 -107.5t-48 -107.5t-116 -46t-116 46t-48 107.5zM1198 133.5q0 61.5 48 107.5t116 46t116 -46t48 -107.5t-48 -107.5t-116 -46
t-116 46t-48 107.5z" />
    <glyph glyph-name="perthousand" unicode="&#x2030;" horiz-adv-x="2437" 
d="M266 1126.5q0 -61.5 41 -102.5t102.5 -41t102.5 41t41 102.5t-41 102.5t-102.5 41t-102.5 -41t-41 -102.5zM256 0l901 1434h256l-901 -1434h-256zM758 1126.5q0 -133.5 -102.5 -236t-246 -102.5t-246 102.5t-102.5 236t102.5 235.5t246 102t246 -102t102.5 -235.5z
M1403 307.5q0 61.5 -41 102.5t-102.5 41t-102.5 -41t-41 -102.5t41 -102.5t102.5 -41t102.5 41t41 102.5zM911 307q0 133 102.5 235.5t246 102.5t246 -102.5t102.5 -235.5t-102.5 -235.5t-246 -102.5t-246 102.5t-102.5 235.5zM2171 307.5q0 61.5 -41 102.5t-102.5 41
t-102.5 -41t-41 -102.5t41 -102.5t102.5 -41t102.5 41t41 102.5zM1679 307q0 133 102.5 235.5t246 102.5t246 -102.5t102.5 -235.5t-102.5 -235.5t-246 -102.5t-246 102.5t-102.5 235.5z" />
    <glyph glyph-name="guilsinglleft" unicode="&#x2039;" horiz-adv-x="696" 
d="M614 850l-256 -358l256 -359h-276l-256 359l256 358h276z" />
    <glyph glyph-name="guilsinglright" unicode="&#x203a;" horiz-adv-x="696" 
d="M338 492l-256 358h276l256 -358l-256 -359h-276z" />
    <glyph glyph-name="fraction" unicode="&#x2044;" horiz-adv-x="430" 
d="M-358 0l890 1434h256l-890 -1434h-256z" />
    <glyph glyph-name="uni2070" unicode="&#x2070;" horiz-adv-x="757" 
d="M246 1270q0 -94 38 -144.5t95 -50.5t95 50.5t38 144.5q0 102 -38 153.5t-95 51.5t-95 -51.5t-38 -153.5zM707 1270q0 -166 -93.5 -267.5t-234.5 -101.5t-234.5 101.5t-93.5 267.5q0 172 93.5 275.5t234.5 103.5t234.5 -103.5t93.5 -275.5z" />
    <glyph glyph-name="uni2074" unicode="&#x2074;" horiz-adv-x="675" 
d="M553 1638v-419h72v-175h-72v-133h-195v133h-327v175l317 419h205zM225 1219h133v174z" />
    <glyph glyph-name="uni2075" unicode="&#x2075;" horiz-adv-x="634" 
d="M369 1382q98 0 166.5 -68.5t68.5 -166.5q0 -111 -75.5 -178.5t-211.5 -67.5q-96 0 -169.5 25.5t-100.5 52.5l-27 25l103 122q61 -61 164 -61q51 0 81.5 26.5t30.5 65.5t-28.5 65.5t-73.5 26.5q-27 0 -50.5 -8t-33.5 -16l-8 -6h-133l41 419h440v-163h-277l-10 -113
q42 20 103 20z" />
    <glyph glyph-name="uni2076" unicode="&#x2076;" horiz-adv-x="645" 
d="M512 1638l-143 -204q117 -23 181 -91.5t64 -175.5q0 -117 -80.5 -191.5t-216.5 -74.5q-129 0 -207.5 75t-78.5 191q0 45 13 86t26 60l12 18l225 307h205zM430 1167q0 47 -29.5 75t-83.5 28q-47 0 -74.5 -29t-27.5 -74t27.5 -73.5t74.5 -28.5q53 0 83 27.5t30 74.5z" />
    <glyph glyph-name="uni2077" unicode="&#x2077;" horiz-adv-x="593" 
d="M31 1638h532v-184l-256 -543h-194l256 543h-338v184z" />
    <glyph glyph-name="uni2078" unicode="&#x2078;" horiz-adv-x="655" 
d="M327.5 1065q102.5 0 102.5 71.5t-102.5 71.5t-102.5 -71.5t102.5 -71.5zM328 1362q37 0 59.5 18.5t22.5 43t-22.5 43t-59.5 18.5t-59.5 -18.5t-22.5 -43t22.5 -43t59.5 -18.5zM327.5 901q-139.5 0 -218 62.5t-78.5 152.5q0 63 35.5 107.5t72.5 54.5l35 12q-4 2 -12 5
t-27.5 16.5t-34 30t-27 44t-12.5 58.5q0 88 71 146.5t196 58.5t195.5 -58.5t70.5 -146.5q0 -49 -28.5 -88t-57.5 -53l-27 -13q6 -2 15.5 -4t34 -15.5t44 -30.5t35 -50t15.5 -74q0 -90 -79 -152.5t-218.5 -62.5z" />
    <glyph glyph-name="uni2079" unicode="&#x2079;" horiz-adv-x="645" 
d="M133 911l143 205q-117 23 -181 91.5t-64 174.5q0 117 81 192t216 75q129 0 207.5 -75t78.5 -192q0 -45 -12 -86t-24 -59l-15 -18l-225 -308h-205zM215 1382.5q0 -47.5 29.5 -75t83.5 -27.5q45 0 73.5 27.5t28.5 75t-28.5 75t-73.5 27.5q-53 0 -83 -27.5t-30 -75z" />
    <glyph glyph-name="uni2080" unicode="&#x2080;" horiz-adv-x="757" 
d="M246 154q0 -94 38 -144.5t95 -50.5t95 50t38 145q0 102 -38 153t-95 51t-95 -51t-38 -153zM707 154q0 -166 -93.5 -267.5t-234.5 -101.5t-234.5 101.5t-93.5 267.5q0 172 93.5 275t234.5 103t234.5 -103t93.5 -275z" />
    <glyph glyph-name="uni2081" unicode="&#x2081;" horiz-adv-x="471" 
d="M205 522h164v-727h-195v481h-123v154q63 6 103.5 34.5t50.5 57.5z" />
    <glyph glyph-name="uni2082" unicode="&#x2082;" horiz-adv-x="675" 
d="M604 297q0 -63 -34.5 -114.5t-76.5 -79t-96.5 -62.5t-79.5 -61h277v-185h-522q0 94 33.5 166t82 113t96.5 73.5t81.5 66.5t33.5 73q0 31 -22.5 51t-59.5 20q-27 0 -52 -20.5t-38 -40.5l-12 -21l-154 54q2 8 7.5 21.5t26 49t48 62t79.5 48t116 21.5q121 0 193.5 -66.5
t72.5 -168.5z" />
    <glyph glyph-name="uni2083" unicode="&#x2083;" horiz-adv-x="686" 
d="M502 184q4 -2 12 -5t27.5 -17.5t34 -32.5t26.5 -50t12 -69q0 -96 -74.5 -160.5t-201.5 -64.5q-96 0 -168 34t-96 66l-23 33l113 113q6 -8 17.5 -22.5t52 -37t88.5 -22.5q98 0 98 71q0 82 -113 82h-71v154h71q82 0 82 51q0 61 -82 62q-33 0 -65.5 -18.5t-48.5 -35.5
l-19 -18l-102 113q4 4 10 13t29.5 29.5t51 37t73 29.5t94.5 13q117 0 190.5 -61t73.5 -143q0 -45 -22.5 -81t-47.5 -50z" />
    <glyph glyph-name="uni2084" unicode="&#x2084;" horiz-adv-x="675" 
d="M553 522v-420h72v-174h-72v-133h-195v133h-327v174l317 420h205zM225 102h133v174z" />
    <glyph glyph-name="uni2085" unicode="&#x2085;" horiz-adv-x="634" 
d="M369 266q98 0 166.5 -68.5t68.5 -166.5q0 -111 -75.5 -178.5t-211.5 -67.5q-96 0 -169.5 25.5t-100.5 50.5l-27 26l103 123q61 -61 164 -61q51 0 81.5 26.5t30.5 65.5t-28.5 65.5t-73.5 26.5q-27 0 -50.5 -7t-33.5 -15l-8 -9h-133l41 420h440v-164h-277l-10 -112
q42 20 103 20z" />
    <glyph glyph-name="uni2086" unicode="&#x2086;" horiz-adv-x="645" 
d="M512 522l-143 -205q117 -23 181 -91t64 -175q0 -117 -80.5 -191.5t-216.5 -74.5q-129 0 -207.5 74.5t-78.5 191.5q0 45 13 86t26 60l12 18l225 307h205zM430 51q0 47 -29.5 75t-83.5 28q-47 0 -74.5 -28t-27.5 -75t27.5 -74.5t74.5 -27.5q53 0 83 27.5t30 74.5z" />
    <glyph glyph-name="uni2087" unicode="&#x2087;" horiz-adv-x="593" 
d="M31 522h532v-184l-256 -543h-194l256 543h-338v184z" />
    <glyph glyph-name="uni2088" unicode="&#x2088;" horiz-adv-x="655" 
d="M327.5 -51q102.5 0 102.5 71.5t-102.5 71.5t-102.5 -71.5t102.5 -71.5zM328 246q37 0 59.5 18.5t22.5 43t-22.5 43t-59.5 18.5t-59.5 -18.5t-22.5 -43t22.5 -43t59.5 -18.5zM327.5 -215q-139.5 0 -218 62.5t-78.5 152.5q0 63 35.5 107.5t72.5 56.5l35 10q-4 2 -12 5
t-27.5 16.5t-34 30t-27 44t-12.5 58.5q0 88 71 146t196 58t195.5 -58t70.5 -146q0 -49 -28.5 -88t-57.5 -52l-27 -14q6 -2 15.5 -4t34 -15.5t44 -31t35 -50t15.5 -73.5q0 -90 -79 -152.5t-218.5 -62.5z" />
    <glyph glyph-name="uni2089" unicode="&#x2089;" horiz-adv-x="645" 
d="M133 -205l143 205q-117 23 -181 91.5t-64 174.5q0 117 81 191.5t216 74.5q129 0 207.5 -74.5t78.5 -191.5q0 -45 -12 -86t-24 -59l-15 -19l-225 -307h-205zM215 266q0 -47 29.5 -74.5t83.5 -27.5q45 0 73.5 28.5t28.5 73.5t-28.5 74t-73.5 29q-53 0 -83 -28t-30 -75z" />
    <glyph glyph-name="Euro" unicode="&#x20ac;" horiz-adv-x="1536" 
d="M543 788v-143h430v-184h-369q4 -8 11.5 -23.5t38 -54.5t67.5 -68.5t102.5 -54t139.5 -24.5q90 0 172 37.5t118 76.5l37 39l174 -184q-6 -10 -18 -25.5t-57.5 -56.5t-98.5 -72t-141 -56.5t-186 -25.5q-104 0 -199.5 27t-163.5 71t-126 96t-95 104t-63.5 96.5t-36.5 70.5
l-13 27h-194v184h164v143h-164v185h194q8 20 23.5 53t75 118t132 149.5t197.5 117.5t269 53q98 0 185 -23.5t142.5 -56t97.5 -65.5t58 -57l18 -23l-184 -184q-4 6 -13.5 15t-40 33.5t-64.5 44t-88 35t-111 15.5q-74 0 -138.5 -23.5t-103.5 -56.5t-66.5 -65.5t-40.5 -57.5
l-10 -22h369v-185h-430z" />
    <glyph glyph-name="uni20B4" unicode="&#x20b4;" horiz-adv-x="1331" 
d="M102 983h686q20 20 21 61q0 63 -53.5 108.5t-141.5 45.5q-74 0 -140 -30.5t-97 -61.5l-29 -31l-184 195q6 8 18.5 21.5t56.5 46t94 58t132 47t170 21.5q223 0 362.5 -122.5t139.5 -297.5q0 -12 -1 -22t-3.5 -16.5t-3.5 -11.5t-3 -7v-4h103v-195h-1127v195zM1229 451h-686
q-20 -20 -21 -62q0 -63 53.5 -108t141.5 -45q74 0 140.5 30.5t96.5 61.5l29 30l184 -194q-6 -8 -18 -21.5t-56 -46.5t-94.5 -58.5t-132.5 -47t-170 -21.5q-223 0 -362 123t-139 297q0 12 1 22.5t3 16.5t3 11t3 7v5h-103v194h1127v-194z" />
    <glyph glyph-name="uni20BD" unicode="&#x20bd;" horiz-adv-x="1423" 
d="M553 788h287q84 0 139 53.5t55 131.5q0 84 -55 139t-139 55h-287v-379zM840 543h-287v-113h430v-246h-430v-184h-307v184h-154v246h154v113h-154v245h154v646h598q215 0 356 -131.5t141 -319.5t-138 -314t-363 -126z" />
    <glyph glyph-name="uni2116" unicode="&#x2116;" horiz-adv-x="2396" 
d="M2314 246v-246h-676v246h676zM1157 1434h307v-1434h-266l-706 911v-911h-308v1434h267l706 -912v912zM2120 737.5q0 61.5 -41 102.5t-102.5 41t-102.5 -41t-41 -102.5t41 -102.5t102.5 -41t102.5 41t41 102.5zM1628 737q0 133 102.5 235.5t246 102.5t245.5 -102.5
t102 -235.5t-102 -235.5t-245.5 -102.5t-246 102.5t-102.5 235.5z" />
    <glyph glyph-name="trademark" unicode="&#x2122;" horiz-adv-x="1454" 
d="M20 1260v174h533v-174h-174v-461h-184v461h-175zM1188 1434h164v-635h-185v342l-174 -219l-174 219v-342h-184v635h164l194 -256z" />
    <glyph glyph-name="minus" unicode="&#x2212;" horiz-adv-x="1085" 
d="M1014 727v-246h-942v246h942z" />
    <glyph glyph-name="approxequal" unicode="&#x2248;" horiz-adv-x="1177" 
d="M420 748q-35 0 -66.5 -11.5t-52 -28t-36 -34t-23.5 -27.5l-6 -12l-175 123q4 8 11.5 22.5t36 52t61.5 65.5t89 51.5t120 23.5q104 0 208.5 -61.5t170.5 -61.5q35 0 66.5 11t52 27.5t36 34t21.5 27.5l8 13l174 -123q-4 -8 -11 -22.5t-36 -52.5t-61.5 -65.5t-89 -51
t-119.5 -23.5q-104 0 -208.5 61.5t-170.5 61.5zM420 358q-35 0 -66.5 -11t-52 -27.5t-36 -34t-23.5 -27.5l-6 -12l-175 123q4 8 11.5 22.5t36 52t61.5 65.5t89 51.5t120 23.5q104 0 208.5 -61.5t170.5 -61.5q55 0 101 28.5t65 55.5l18 28l174 -122q-4 -8 -11 -22.5
t-36 -52.5t-61.5 -65.5t-89 -51t-119.5 -23.5q-104 0 -208.5 61t-170.5 61z" />
    <glyph glyph-name="notequal" unicode="&#x2260;" horiz-adv-x="993" 
d="M922 522v-235h-430l-82 -205h-246l82 205h-174v235h266l72 164h-338v236h430l82 204h245l-81 -204h174v-236h-267l-71 -164h338z" />
    <glyph glyph-name="lessequal" unicode="&#x2264;" horiz-adv-x="1034" 
d="M72 0v225h891v-225h-891zM963 1208v-245l-512 -215l512 -216v-245l-891 389v143z" />
    <glyph glyph-name="greaterequal" unicode="&#x2265;" horiz-adv-x="1034" 
d="M963 225v-225h-891v225h891zM72 963v245l891 -389v-143l-891 -389v245l512 216z" />
    <glyph glyph-name="uniF6C3" unicode="&#xf6c3;" horiz-adv-x="471" 
d="M61 -471l93 307h256l-144 -307h-205z" />
    <glyph glyph-name="uniF6D1" unicode="&#xf6d1;" horiz-adv-x="778" 
d="M389 1792q53 0 88 35t35 88h205q0 -139 -91 -228.5t-236.5 -89.5t-237 89.5t-91.5 228.5h205q0 -53 35 -88t88 -35z" />
    <glyph glyph-name="uniF6D4" unicode="&#xf6d4;" horiz-adv-x="778" 
d="M389 1321q53 0 88 35t35 88h205q0 -131 -92.5 -219t-235.5 -88t-235.5 88t-92.5 219h205q0 -53 35 -88t88 -35z" />
    <glyph glyph-name="glyph2" horiz-adv-x="681" 
 />
    <glyph glyph-name="lslash.salt" horiz-adv-x="839" 
d="M532 1434v-492l205 123l113 -205l-318 -184v-328q0 -47 35 -79.5t88 -32.5q23 0 48.5 3t39.5 7l15 4v-246q-72 -25 -174 -24q-156 0 -242 90t-86 258v184l-205 -123l-112 205l317 184v656h276z" />
    <glyph glyph-name="glyph444" horiz-adv-x="1382" 
d="M952 840q14 -2 36 -8.5t78 -35t99 -68.5t79 -116.5t36 -171.5q0 -180 -142.5 -310t-359.5 -130h-123v246h103q92 0 148.5 54t56.5 140t-56.5 140.5t-148.5 54.5h-103v225l226 307h-205q-92 0 -148.5 -56t-56.5 -148v-963h-307v963q0 203 140 337t362 134h532v-256z" />
    <glyph glyph-name="uni045E.salt" horiz-adv-x="1064" 
d="M522 1321q53 0 88 35t35 88h205q0 -131 -92 -219t-235.5 -88t-235.5 88t-92 219h204q0 -53 35 -88t88 -35zM205 -430l184 430l-389 1004h287l235 -666l236 666h286l-552 -1434h-287z" />
    <glyph glyph-name="agrave.salt" horiz-adv-x="1116" 
d="M963 -20q-90 0 -151.5 38.5t-78.5 75.5l-16 39q-4 -6 -11.5 -16.5t-36 -37t-61.5 -47t-89 -36.5t-120 -16q-150 0 -244 83.5t-94 202.5q0 123 79 205t218 107l318 57q0 63 -46 103t-128 40q-68 0 -124 -25.5t-79 -52.5l-23 -24l-153 153q6 8 16.5 21.5t47 46.5t79.5 58.5
t113 47t143 21.5q190 0 310 -113.5t120 -285.5v-338q0 -31 20.5 -51.5t51.5 -20.5l41 10v-225q-41 -20 -102 -20zM471 205q94 0 149.5 59.5t55.5 165.5v31l-225 -41q-113 -18 -113 -113q0 -102 133 -102zM532 1444l164 -307h-225l-225 307h286z" />
    <glyph glyph-name="aacute.salt" horiz-adv-x="1116" 
d="M963 -20q-90 0 -151.5 38.5t-78.5 75.5l-16 39q-4 -6 -11.5 -16.5t-36 -37t-61.5 -47t-89 -36.5t-120 -16q-150 0 -244 83.5t-94 202.5q0 123 79 205t218 107l318 57q0 63 -46 103t-128 40q-68 0 -124 -25.5t-79 -52.5l-23 -24l-153 153q6 8 16.5 21.5t47 46.5t79.5 58.5
t113 47t143 21.5q190 0 310 -113.5t120 -285.5v-338q0 -31 20.5 -51.5t51.5 -20.5l41 10v-225q-41 -20 -102 -20zM471 205q94 0 149.5 59.5t55.5 165.5v31l-225 -41q-113 -18 -113 -113q0 -102 133 -102zM451 1137l163 307h287l-225 -307h-225z" />
    <glyph glyph-name="abreve.salt" horiz-adv-x="1116" 
d="M963 -20q-90 0 -151.5 38.5t-78.5 75.5l-16 39q-4 -6 -11.5 -16.5t-36 -37t-61.5 -47t-89 -36.5t-120 -16q-150 0 -244 83.5t-94 202.5q0 123 79 205t218 107l318 57q0 63 -46 103t-128 40q-68 0 -124 -25.5t-79 -52.5l-23 -24l-153 153q6 8 16.5 21.5t47 46.5t79.5 58.5
t113 47t143 21.5q190 0 310 -113.5t120 -285.5v-338q0 -31 20.5 -51.5t51.5 -20.5l41 10v-225q-41 -20 -102 -20zM471 205q94 0 149.5 59.5t55.5 165.5v31l-225 -41q-113 -18 -113 -113q0 -102 133 -102zM563 1321q53 0 88 35t35 88h205q0 -131 -92 -219t-235.5 -88
t-235.5 88t-92 219h204q0 -53 35 -88t88 -35z" />
    <glyph glyph-name="acircumflex.salt" horiz-adv-x="1116" 
d="M963 -20q-90 0 -151.5 38.5t-78.5 75.5l-16 39q-4 -6 -11.5 -16.5t-36 -37t-61.5 -47t-89 -36.5t-120 -16q-150 0 -244 83.5t-94 202.5q0 123 79 205t218 107l318 57q0 63 -46 103t-128 40q-68 0 -124 -25.5t-79 -52.5l-23 -24l-153 153q6 8 16.5 21.5t47 46.5t79.5 58.5
t113 47t143 21.5q190 0 310 -113.5t120 -285.5v-338q0 -31 20.5 -51.5t51.5 -20.5l41 10v-225q-41 -20 -102 -20zM471 205q94 0 149.5 59.5t55.5 165.5v31l-225 -41q-113 -18 -113 -113q0 -102 133 -102zM676 1444l246 -307h-246l-123 163l-123 -163h-246l246 307h246z" />
    <glyph glyph-name="adieresis.salt" horiz-adv-x="1116" 
d="M963 -20q-90 0 -151.5 38.5t-78.5 75.5l-16 39q-4 -6 -11.5 -16.5t-36 -37t-61.5 -47t-89 -36.5t-120 -16q-150 0 -244 83.5t-94 202.5q0 123 79 205t218 107l318 57q0 63 -46 103t-128 40q-68 0 -124 -25.5t-79 -52.5l-23 -24l-153 153q6 8 16.5 21.5t47 46.5t79.5 58.5
t113 47t143 21.5q190 0 310 -113.5t120 -285.5v-338q0 -31 20.5 -51.5t51.5 -20.5l41 10v-225q-41 -20 -102 -20zM471 205q94 0 149.5 59.5t55.5 165.5v31l-225 -41q-113 -18 -113 -113q0 -102 133 -102zM205 1280q0 61 46 107.5t107.5 46.5t107.5 -46.5t46 -107.5
t-46 -107.5t-107.5 -46.5t-107.5 46.5t-46 107.5zM655 1280q0 61 46.5 107.5t107.5 46.5t107.5 -46.5t46.5 -107.5t-46.5 -107.5t-107.5 -46.5t-107.5 46.5t-46.5 107.5z" />
    <glyph glyph-name="amacron.salt" horiz-adv-x="1116" 
d="M963 -20q-90 0 -151.5 38.5t-78.5 75.5l-16 39q-4 -6 -11.5 -16.5t-36 -37t-61.5 -47t-89 -36.5t-120 -16q-150 0 -244 83.5t-94 202.5q0 123 79 205t218 107l318 57q0 63 -46 103t-128 40q-68 0 -124 -25.5t-79 -52.5l-23 -24l-153 153q6 8 16.5 21.5t47 46.5t79.5 58.5
t113 47t143 21.5q190 0 310 -113.5t120 -285.5v-338q0 -31 20.5 -51.5t51.5 -20.5l41 10v-225q-41 -20 -102 -20zM471 205q94 0 149.5 59.5t55.5 165.5v31l-225 -41q-113 -18 -113 -113q0 -102 133 -102zM891 1423v-204h-655v204h655z" />
    <glyph glyph-name="aogonek.salt" horiz-adv-x="1116" 
d="M471 205q94 0 149.5 59.5t55.5 165.5v31l-225 -41q-113 -18 -113 -113q0 -102 133 -102zM717 133q-4 -6 -11.5 -16.5t-36 -37t-61.5 -47t-89 -36.5t-120 -16q-150 0 -244 83.5t-94 202.5q0 123 79 205t218 107l318 57q0 63 -46 103t-128 40q-68 0 -124 -25.5t-79 -52.5
l-23 -24l-153 153q6 8 16.5 21.5t47 46.5t79.5 58.5t113 47t143 21.5q190 0 310 -113.5t120 -285.5v-338q0 -31 20.5 -51.5t51.5 -20.5l41 10v-225q-35 -16 -86 -20q-57 -92 -57 -185q0 -82 92 -82q27 0 52.5 5.5t37.5 11.5l12 4v-154q-61 -31 -164 -31q-98 0 -161.5 60.5
t-63.5 148.5q0 61 29.5 122t60.5 91l31 29q-47 16 -80 50t-43 59z" />
    <glyph glyph-name="aring.salt" horiz-adv-x="1116" 
d="M502 1321q0 -82 82 -82t82 82t-82 82t-82 -82zM819 1321q0 -92 -68.5 -158.5t-167 -66.5t-167 66.5t-68.5 158.5t68.5 158.5t167 66.5t167 -66.5t68.5 -158.5zM963 -20q-90 0 -151.5 38.5t-78.5 75.5l-16 39q-4 -6 -11.5 -16.5t-36 -37t-61.5 -47t-89 -36.5t-120 -16
q-150 0 -244 83.5t-94 202.5q0 123 79 205t218 107l318 57q0 63 -46 103t-128 40q-68 0 -124 -25.5t-79 -52.5l-23 -24l-153 153q6 8 16.5 21.5t47 46.5t79.5 58.5t113 47t143 21.5q190 0 310 -113.5t120 -285.5v-338q0 -31 20.5 -51.5t51.5 -20.5l41 10v-225
q-41 -20 -102 -20zM471 205q94 0 149.5 59.5t55.5 165.5v31l-225 -41q-113 -18 -113 -113q0 -102 133 -102z" />
    <glyph glyph-name="atilde.salt" horiz-adv-x="1116" 
d="M963 -20q-90 0 -151.5 38.5t-78.5 75.5l-16 39q-4 -6 -11.5 -16.5t-36 -37t-61.5 -47t-89 -36.5t-120 -16q-150 0 -244 83.5t-94 202.5q0 123 79 205t218 107l318 57q0 63 -46 103t-128 40q-68 0 -124 -25.5t-79 -52.5l-23 -24l-153 153q6 8 16.5 21.5t47 46.5t79.5 58.5
t113 47t143 21.5q190 0 310 -113.5t120 -285.5v-338q0 -31 20.5 -51.5t51.5 -20.5l41 10v-225q-41 -20 -102 -20zM471 205q94 0 149.5 59.5t55.5 165.5v31l-225 -41q-113 -18 -113 -113q0 -102 133 -102zM737 1126q-78 0 -152.5 51.5t-113.5 51.5q-72 0 -72 -103h-174
q0 156 59.5 232t159.5 76q76 0 152 -56.5t111 -56.5q72 0 71 113h174q0 -154 -58.5 -231t-156.5 -77z" />
    <glyph glyph-name="lacute.salt" horiz-adv-x="686" 
d="M164 1608l164 307h286l-225 -307h-225zM410 1434v-1086q0 -47 34.5 -79.5t87.5 -32.5q23 0 48.5 3t40.5 7l14 4v-246q-72 -25 -174 -24q-156 0 -242 90t-86 258v1106h277z" />
    <glyph glyph-name="lcaron.salt" horiz-adv-x="716" 
d="M410 1434v-1086q0 -47 34.5 -79.5t87.5 -32.5q23 0 48.5 3t40.5 7l14 4v-246q-72 -25 -174 -24q-156 0 -242 90t-86 258v1106h277zM492 1126l92 308h256l-144 -308h-204z" />
    <glyph glyph-name="uni013C.salt" horiz-adv-x="686" 
d="M410 1434v-1086q0 -47 34.5 -79.5t87.5 -32.5q23 0 48.5 3t40.5 7l14 4v-246q-72 -25 -174 -24q-156 0 -242 90t-86 258v1106h277zM154 -471l92 307h256l-144 -307h-204z" />
    <glyph glyph-name="Igrave.salt" horiz-adv-x="860" 
d="M82 1157v277h696v-277h-194v-881h194v-276h-696v276h194v881h-194zM369 1915l163 -307h-225l-225 307h287z" />
    <glyph glyph-name="Iacute.salt" horiz-adv-x="860" 
d="M82 1157v277h696v-277h-194v-881h194v-276h-696v276h194v881h-194zM307 1608l164 307h287l-226 -307h-225z" />
    <glyph glyph-name="Icircumflex.salt" horiz-adv-x="860" 
d="M82 1157v277h696v-277h-194v-881h194v-276h-696v276h194v881h-194zM547 1915l246 -307h-246l-123 164l-123 -164h-246l246 307h246z" />
    <glyph glyph-name="Idieresis.salt" horiz-adv-x="860" 
d="M82 1157v277h696v-277h-194v-881h194v-276h-696v276h194v881h-194zM51 1751q0 61 46 107.5t107.5 46.5t107.5 -46.5t46 -107.5t-46 -107.5t-107.5 -46.5t-107.5 46.5t-46 107.5zM502 1751q0 61 46 107.5t107.5 46.5t107.5 -46.5t46 -107.5t-46 -107.5t-107.5 -46.5
t-107.5 46.5t-46 107.5z" />
    <glyph glyph-name="Idotaccent.salt" horiz-adv-x="860" 
d="M82 1157v277h696v-277h-194v-881h194v-276h-696v276h194v881h-194zM584 1761.5q0 -69.5 -44 -111.5t-120 -42q-70 0 -112 42t-42 111.5t42 111.5t112 42q76 0 120 -42t44 -111.5z" />
    <glyph glyph-name="Imacron.salt" horiz-adv-x="860" 
d="M82 1157v277h696v-277h-194v-881h194v-276h-696v276h194v881h-194zM758 1874v-205h-656v205h656z" />
    <glyph glyph-name="Iogonek.salt" horiz-adv-x="860" 
d="M635 0h-553v276h194v881h-194v277h696v-277h-194v-881h194v-276q-72 -102 -71 -205q0 -82 92 -82q27 0 52.5 5.5t37.5 11.5l12 4v-154q-61 -31 -164 -31q-98 0 -161.5 60.5t-63.5 148.5q0 61 30.5 122t61.5 91z" />
    <glyph glyph-name="yacute.salt" 
d="M492 1137l163 307h287l-225 -307h-225zM809 1004h276v-943q0 -209 -145 -350t-367 -141q-86 0 -163.5 21.5t-128 51t-88 59.5t-54.5 52l-16 21l153 164q12 -14 34 -37t96.5 -60t156.5 -37q109 0 177.5 71t68.5 185v93q-4 -4 -12.5 -13.5t-36 -30t-59 -37t-83 -29.5
t-106.5 -13q-164 0 -271.5 115.5t-107.5 304.5v553h277v-523q0 -84 53 -139t131 -55q94 0 154.5 64.5t60.5 170.5v482z" />
    <glyph glyph-name="ydieresis.salt" 
d="M809 1004h276v-943q0 -209 -145 -350t-367 -141q-86 0 -163.5 21.5t-128 51t-88 59.5t-54.5 52l-16 21l153 164q12 -14 34 -37t96.5 -60t156.5 -37q109 0 177.5 71t68.5 185v93q-4 -4 -12.5 -13.5t-36 -30t-59 -37t-83 -29.5t-106.5 -13q-164 0 -271.5 115.5
t-107.5 304.5v553h277v-523q0 -84 53 -139t131 -55q94 0 154.5 64.5t60.5 170.5v482zM236 1280q0 61 46 107.5t107.5 46.5t107.5 -46.5t46 -107.5t-46 -107.5t-107.5 -46.5t-107.5 46.5t-46 107.5zM686 1280q0 61 46 107.5t107.5 46.5t107.5 -46.5t46 -107.5t-46 -107.5
t-107.5 -46.5t-107.5 46.5t-46 107.5z" />
    <glyph glyph-name="ugrave.salt" 
d="M543 1444l164 -307h-226l-225 307h287zM123 410v594h276v-564q0 -90 53.5 -147t131.5 -57q88 0 141 61t53 174v533h277v-707q0 -31 20.5 -51.5t50.5 -20.5l41 11v-236q-41 -20 -102 -20q-90 0 -151.5 38.5t-77.5 75.5l-17 39l-11 -16q-7 -11 -36 -37.5t-61.5 -47
t-89 -36.5t-119.5 -16q-164 0 -271.5 116.5t-107.5 313.5z" />
    <glyph glyph-name="uacute.salt" 
d="M471 1137l164 307h287l-226 -307h-225zM123 410v594h276v-564q0 -90 53.5 -147t131.5 -57q88 0 141 61t53 174v533h277v-707q0 -31 20.5 -51.5t50.5 -20.5l41 11v-236q-41 -20 -102 -20q-90 0 -151.5 38.5t-77.5 75.5l-17 39l-11 -16q-7 -11 -36 -37.5t-61.5 -47
t-89 -36.5t-119.5 -16q-164 0 -271.5 116.5t-107.5 313.5z" />
    <glyph glyph-name="ucircumflex.salt" 
d="M123 410v594h276v-564q0 -90 53.5 -147t131.5 -57q88 0 141 61t53 174v533h277v-707q0 -31 20.5 -51.5t50.5 -20.5l41 11v-236q-41 -20 -102 -20q-90 0 -151.5 38.5t-77.5 75.5l-17 39l-11 -16q-7 -11 -36 -37.5t-61.5 -47t-89 -36.5t-119.5 -16q-164 0 -271.5 116.5
t-107.5 313.5zM707 1444l245 -307h-245l-123 163l-123 -163h-246l246 307h246z" />
    <glyph glyph-name="udieresis.salt" 
d="M123 410v594h276v-564q0 -90 53.5 -147t131.5 -57q88 0 141 61t53 174v533h277v-707q0 -31 20.5 -51.5t50.5 -20.5l41 11v-236q-41 -20 -102 -20q-90 0 -151.5 38.5t-77.5 75.5l-17 39l-11 -16q-7 -11 -36 -37.5t-61.5 -47t-89 -36.5t-119.5 -16q-164 0 -271.5 116.5
t-107.5 313.5zM215 1280q0 61 46 107.5t107.5 46.5t107.5 -46.5t46 -107.5t-46 -107.5t-107.5 -46.5t-107.5 46.5t-46 107.5zM666 1280q0 61 46 107.5t107.5 46.5t107.5 -46.5t46 -107.5t-46 -107.5t-107.5 -46.5t-107.5 46.5t-46 107.5z" />
    <glyph glyph-name="uhungarumlaut.salt" 
d="M123 410v594h276v-564q0 -90 53.5 -147t131.5 -57q88 0 141 61t53 174v533h277v-707q0 -31 20.5 -51.5t50.5 -20.5l41 11v-236q-41 -20 -102 -20q-90 0 -151.5 38.5t-77.5 75.5l-17 39l-11 -16q-7 -11 -36 -37.5t-61.5 -47t-89 -36.5t-119.5 -16q-164 0 -271.5 116.5
t-107.5 313.5zM287 1137l164 307h276l-235 -307h-205zM676 1137l164 307h276l-235 -307h-205z" />
    <glyph glyph-name="umacron.salt" 
d="M123 410v594h276v-564q0 -90 53.5 -147t131.5 -57q88 0 141 61t53 174v533h277v-707q0 -31 20.5 -51.5t50.5 -20.5l41 11v-236q-41 -20 -102 -20q-90 0 -151.5 38.5t-77.5 75.5l-17 39l-11 -16q-7 -11 -36 -37.5t-61.5 -47t-89 -36.5t-119.5 -16q-164 0 -271.5 116.5
t-107.5 313.5zM922 1403v-205h-656v205h656z" />
    <glyph glyph-name="uogonek.salt" 
d="M123 410v594h276v-564q0 -90 53.5 -147t131.5 -57q88 0 141 61t53 174v533h277v-707q0 -31 20.5 -51.5t50.5 -20.5l41 11v-236q-35 -16 -86 -20q-57 -92 -57 -185q0 -82 92 -82q27 0 52.5 5.5t37.5 11.5l13 4v-154q-61 -31 -164 -31q-98 0 -162 60.5t-64 148.5
q0 61 30 122t61 91l30 29q-47 16 -79.5 50t-43.5 59l-8 24l-11 -16q-7 -11 -36 -37.5t-61.5 -47t-89 -36.5t-119.5 -16q-164 0 -271.5 116.5t-107.5 313.5z" />
    <glyph glyph-name="uring.salt" 
d="M522 1321q0 -82 82 -82t82 82t-82 82t-82 -82zM840 1321q0 -92 -69 -158.5t-167 -66.5t-166.5 66.5t-68.5 158.5t68.5 158.5t166.5 66.5t167 -66.5t69 -158.5zM123 410v594h276v-564q0 -90 53.5 -147t131.5 -57q88 0 141 61t53 174v533h277v-707q0 -31 20.5 -51.5
t50.5 -20.5l41 11v-236q-41 -20 -102 -20q-90 0 -151.5 38.5t-77.5 75.5l-17 39l-11 -16q-7 -11 -36 -37.5t-61.5 -47t-89 -36.5t-119.5 -16q-164 0 -271.5 116.5t-107.5 313.5z" />
    <glyph glyph-name="a.salt" horiz-adv-x="1116" 
d="M963 -20q-90 0 -151.5 38.5t-78.5 75.5l-16 39q-4 -6 -11.5 -16.5t-36 -37t-61.5 -47t-89 -36.5t-120 -16q-150 0 -244 83.5t-94 202.5q0 123 79 205t218 107l318 57q0 63 -46 103t-128 40q-68 0 -124 -25.5t-79 -52.5l-23 -24l-153 153q6 8 16.5 21.5t47 46.5t79.5 58.5
t113 47t143 21.5q190 0 310 -113.5t120 -285.5v-338q0 -31 20.5 -51.5t51.5 -20.5l41 10v-225q-41 -20 -102 -20zM471 205q94 0 149.5 59.5t55.5 165.5v31l-225 -41q-113 -18 -113 -113q0 -102 133 -102z" />
    <glyph glyph-name="l.salt" horiz-adv-x="675" 
d="M410 1434v-1086q0 -47 34.5 -79.5t87.5 -32.5q23 0 48.5 3t40.5 7l14 4v-246q-72 -25 -174 -24q-156 0 -242 90t-86 258v1106h277z" />
    <glyph glyph-name="uni0443.salt" horiz-adv-x="1064" 
d="M205 -430l184 430l-389 1004h287l235 -666l236 666h286l-552 -1434h-287z" />
    <glyph glyph-name="y.salt" 
d="M809 1004h276v-943q0 -209 -145 -350t-367 -141q-86 0 -163.5 21.5t-128 51t-88 59.5t-54.5 52l-16 21l153 164q12 -14 34 -37t96.5 -60t156.5 -37q109 0 177.5 71t68.5 185v93q-4 -4 -12.5 -13.5t-36 -30t-59 -37t-83 -29.5t-106.5 -13q-164 0 -271.5 115.5
t-107.5 304.5v553h277v-523q0 -84 53 -139t131 -55q94 0 154.5 64.5t60.5 170.5v482z" />
    <glyph glyph-name="I.salt" horiz-adv-x="860" 
d="M82 1157v277h696v-277h-194v-881h194v-276h-696v276h194v881h-194z" />
    <glyph glyph-name="u.salt" 
d="M123 410v594h276v-564q0 -90 53.5 -147t131.5 -57q88 0 141 61t53 174v533h277v-707q0 -31 20.5 -51.5t50.5 -20.5l41 11v-236q-41 -20 -102 -20q-90 0 -151.5 38.5t-77.5 75.5l-17 39l-11 -16q-7 -11 -36 -37.5t-61.5 -47t-89 -36.5t-119.5 -16q-164 0 -271.5 116.5
t-107.5 313.5z" />
    <glyph glyph-name="uni0430.salt" horiz-adv-x="1116" 
d="M963 -20q-90 0 -151.5 38.5t-78.5 75.5l-16 39q-4 -6 -11.5 -16.5t-36 -37t-61.5 -47t-89 -36.5t-120 -16q-150 0 -244 83.5t-94 202.5q0 123 79 205t218 107l318 57q0 63 -46 103t-128 40q-68 0 -124 -25.5t-79 -52.5l-23 -24l-153 153q6 8 16.5 21.5t47 46.5t79.5 58.5
t113 47t143 21.5q190 0 310 -113.5t120 -285.5v-338q0 -31 20.5 -51.5t51.5 -20.5l41 10v-225q-41 -20 -102 -20zM471 205q94 0 149.5 59.5t55.5 165.5v31l-225 -41q-113 -18 -113 -113q0 -102 133 -102z" />
    <glyph glyph-name="at.case" horiz-adv-x="1843" 
d="M911 891q-74 0 -124 -52.5t-50 -132t50.5 -132t123.5 -52.5q70 0 117 51.5t47 133t-47 133t-117 51.5zM881 1085q59 0 107 -20.5t69 -40.5l18 -20v71h195v-450q0 -47 32.5 -80t79.5 -33q143 0 144 246q0 233 -173 398t-431 165q-246 0 -420 -176t-174 -428t174 -428
t420 -176q104 0 196 30.5t131 61.5l41 31l113 -144q-6 -6 -20.5 -18.5t-60.5 -42t-98.5 -53t-134 -42t-167.5 -18.5q-211 0 -395.5 109.5t-294 294t-109.5 395.5t109.5 395t294 294t395.5 110q342 0 575.5 -223.5t233.5 -534.5q0 -201 -98.5 -315.5t-250.5 -114.5
q-72 0 -131 30.5t-82 61.5l-22 31q-8 -14 -25.5 -35t-83 -54.5t-147.5 -33.5q-150 0 -254.5 107.5t-104.5 271.5q0 162 104 270t245 108z" />
    <glyph glyph-name="parenleft.case" horiz-adv-x="747" 
d="M420 717q0 -137 28.5 -276.5t69.5 -240t81 -181t69 -121.5l28 -41l-215 -123q-14 16 -36.5 46t-81 129t-102.5 205.5t-81 271.5t-37 331t35 328.5t84 275.5t99.5 202t84.5 132l35 45l215 -133q-10 -14 -29.5 -42t-66.5 -116t-84 -181t-66.5 -233.5t-29.5 -277.5z" />
    <glyph glyph-name="parenright.case" horiz-adv-x="747" 
d="M328 717q0 137 -29 275t-70 237.5t-80.5 178.5t-68.5 120l-29 39l215 133q14 -16 37 -46t81 -129.5t102 -206t81 -271t37 -330.5t-34.5 -329t-85 -275.5t-99.5 -201.5t-84 -132l-35 -45l-215 123q10 14 29.5 41.5t67 117.5t84 185.5t66.5 237t30 278.5z" />
    <glyph glyph-name="bracketleft.case" horiz-adv-x="737" 
d="M430 1423v-1413h246v-235h-512v1884h512v-236h-246z" />
    <glyph glyph-name="bracketright.case" horiz-adv-x="737" 
d="M307 10v1413h-246v236h512v-1884h-512v235h246z" />
    <glyph glyph-name="braceleft.case" horiz-adv-x="808" 
d="M113 604v225q61 0 97 36t36 98v348q0 168 88 258t250 90h153v-246h-102q-53 0 -88 -36t-35 -93v-332q0 -57 -13.5 -102t-33 -68.5t-39.5 -40t-33 -20.5l-14 -4q6 -2 14 -5t32 -19.5t41 -40t31.5 -68.5t14.5 -103v-334q0 -57 35 -92t88 -35h102v-245h-153q-162 0 -250 90
t-88 258v348q0 61 -36 97t-97 36z" />
    <glyph glyph-name="braceright.case" horiz-adv-x="808" 
d="M696 829v-225q-61 0 -97 -36t-36 -97v-348q0 -168 -88 -258t-250 -90h-153v245h102q53 0 88 35t35 92v334q0 57 13.5 102.5t34 69t39.5 40t34 20.5l12 4q-6 2 -14 5t-32 19.5t-41 40t-31.5 68.5t-14.5 102v332q0 57 -35 93t-88 36h-102v246h153q162 0 250 -90t88 -258
v-348q0 -61 36 -97.5t97 -36.5z" />
    <glyph glyph-name="exclamdown.case" horiz-adv-x="675" 
d="M225 1024h226l51 -1024h-328zM174 1300.5q0 61.5 48 107.5t116 46t116 -46t48 -107.5t-48 -107.5t-116 -46t-116 46t-48 107.5z" />
    <glyph glyph-name="questiondown.case" horiz-adv-x="1126" 
d="M748 922q0 -82 -36 -145.5t-87.5 -102.5t-102.5 -75t-87 -83t-36 -106q0 -63 51.5 -108.5t133.5 -45.5q86 0 147.5 41t79.5 82l18 41l256 -113q-4 -14 -13 -37.5t-49 -83t-92 -105.5t-147.5 -84t-210.5 -38q-217 0 -354 121t-137 289q0 104 38 185t92 131t108.5 94
t92.5 103.5t38 131.5h276q21 -51 21 -92zM768 1290.5q0 -61.5 -48 -107.5t-115.5 -46t-116 46t-48.5 107.5t48.5 107.5t116 46t115.5 -46t48 -107.5z" />
    <glyph glyph-name="guillemotleft.case" horiz-adv-x="1146" 
d="M614 1075l-256 -358l256 -359h-266l-256 359l256 358h266zM1055 1075l-256 -358l256 -359h-267l-256 359l256 358h267z" />
    <glyph glyph-name="guillemotright.case" horiz-adv-x="1146" 
d="M788 717l-256 358h267l256 -358l-256 -359h-267zM348 717l-256 358h266l256 -358l-256 -359h-266z" />
    <glyph glyph-name="guilsinglleft.case" horiz-adv-x="716" 
d="M625 1075l-256 -358l256 -359h-277l-256 359l256 358h277z" />
    <glyph glyph-name="guilsinglright.case" horiz-adv-x="716" 
d="M348 717l-256 358h277l256 -358l-256 -359h-277z" />
    <glyph glyph-name="hyphen.case" horiz-adv-x="880" 
d="M809 817v-246h-737v246h737z" />
    <glyph glyph-name="endash.case" horiz-adv-x="1013" 
d="M942 825v-239h-870v239h870z" />
    <glyph glyph-name="emdash.case" horiz-adv-x="1505" 
d="M1434 825v-239h-1362v239h1362z" />
    <glyph glyph-name="periodcentered.case" horiz-adv-x="409" 
d="M41 716.5q0 61.5 48 107.5t115.5 46t116 -46t48.5 -107.5t-48.5 -107.5t-116 -46t-115.5 46t-48 107.5z" />
    <glyph glyph-name="zero.tnum" horiz-adv-x="1331" 
d="M358 717q0 -225 91.5 -348t216.5 -123t216 123t91 348t-91 348t-216 123t-216.5 -123t-91.5 -348zM1280 717q0 -336 -179 -542t-435 -206t-435.5 206t-179.5 542t179.5 541.5t435.5 205.5t435 -205.5t179 -541.5z" />
    <glyph glyph-name="one.tnum" horiz-adv-x="1331" 
d="M625 1434h256v-1434h-308v1044h-245v195q66 8 121 31.5t85.5 50.5t52 52.5t29.5 43.5z" />
    <glyph glyph-name="two.tnum" horiz-adv-x="1331" 
d="M1157 0h-1003q0 158 51 286t127 202.5t165 142t164.5 115t127 111t51.5 136.5q0 86 -53.5 135.5t-151.5 49.5q-78 0 -134.5 -44t-74.5 -87l-16 -43l-256 122q4 14 13 37t48 81.5t90 102.5t144.5 80.5t205.5 36.5q219 0 360.5 -133t141.5 -327q0 -109 -47 -198
t-123 -151.5t-155.5 -115t-162.5 -119t-126 -133.5h614v-287z" />
    <glyph glyph-name="three.tnum" horiz-adv-x="1331" 
d="M922 758q10 -4 27.5 -11.5t61.5 -36t77.5 -65.5t61.5 -102.5t28 -143.5q0 -176 -146.5 -303t-386.5 -127q-102 0 -196.5 23.5t-155 56.5t-105.5 65.5t-65 57.5l-21 23l185 194q4 -6 13 -16.5t41 -37t67.5 -47t91 -36.5t114.5 -16q119 0 182.5 52t63.5 132t-62.5 132
t-172.5 52h-154v256h143q90 0 142.5 48t52.5 126q0 72 -52 118t-143 46q-78 0 -146.5 -34t-98.5 -66l-31 -33l-184 184q6 8 18 22.5t57 52.5t97.5 65.5t138.5 51t180 23.5q217 0 349 -114.5t132 -284.5q0 -63 -21.5 -117.5t-51 -88.5t-59 -57.5t-52.5 -33.5z" />
    <glyph glyph-name="four.tnum" horiz-adv-x="1331" 
d="M1075 522h164v-266h-164v-256h-307v256h-676v307l625 871h358v-912zM768 522v553l-389 -553h389z" />
    <glyph glyph-name="five.tnum" horiz-adv-x="1331" 
d="M727 952q207 0 344 -137t137 -344q0 -217 -149.5 -359.5t-392.5 -142.5q-102 0 -195.5 23.5t-152 56.5t-102.5 65.5t-64 57.5l-19 23l184 194q14 -16 40 -39.5t112 -63.5t176 -40q115 0 180.5 62.5t65.5 162.5t-69.5 168t-176.5 68q-74 0 -132 -28t-81 -56l-22 -29
l-215 20l51 820h870v-267h-594l-20 -266q82 51 225 51z" />
    <glyph glyph-name="six.tnum" horiz-adv-x="1331" 
d="M717 973q193 0 342 -151.5t149 -350.5q0 -211 -153.5 -356.5t-389 -145.5t-389 145.5t-153.5 356.5q0 86 30.5 173t61.5 130l31 45l399 615h318l-308 -471q27 10 62 10zM911 471q0 100 -69.5 168t-176 68t-176 -68t-69.5 -168t69.5 -167.5t176 -67.5t176 67.5t69.5 167.5
z" />
    <glyph glyph-name="seven.tnum" horiz-adv-x="1331" 
d="M174 1434h983v-246l-563 -1188h-318l553 1157h-655v277z" />
    <glyph glyph-name="eight.tnum" horiz-adv-x="1331" 
d="M665.5 225q96.5 0 166 62.5t69.5 142.5t-69.5 142.5t-166 62.5t-166 -62.5t-69.5 -142.5t69.5 -142.5t166 -62.5zM666 881q82 0 133 47t51 116.5t-51 116.5t-133 47t-133.5 -47t-51.5 -116.5t51.5 -116.5t133.5 -47zM665.5 -31q-225.5 0 -374 136.5t-148.5 324.5
q0 66 22.5 126t53.5 99t62.5 68t54.5 43l22 12q-6 4 -17 11.5t-40 34t-50.5 57t-38.5 80t-17 104.5q0 160 135 279.5t335.5 119.5t336 -119.5t135.5 -279.5q0 -86 -41 -157.5t-82 -100.5l-41 -29q8 -4 22.5 -13t52 -41t65.5 -70t51.5 -98t23.5 -126q0 -188 -148.5 -324.5
t-374 -136.5z" />
    <glyph glyph-name="nine.tnum" horiz-adv-x="1331" 
d="M614 461q-193 0 -342 151.5t-149 350.5q0 211 153.5 356t389 145t389 -145t153.5 -356q0 -86 -30.5 -173.5t-61.5 -130.5l-31 -45l-399 -614h-317l307 471q-27 -10 -62 -10zM420 962.5q0 -100.5 69.5 -168t176 -67.5t176 67.5t69.5 168t-69.5 168t-176 67.5t-176 -67.5
t-69.5 -168z" />
    <glyph glyph-name="zero.frac" horiz-adv-x="757" 
d="M246 1065q0 -94 38 -144.5t95 -50.5t95 50.5t38 144.5q0 102 -38 153.5t-95 51.5t-95 -51.5t-38 -153.5zM707 1065q0 -166 -93.5 -267.5t-234.5 -101.5t-234.5 101.5t-93.5 267.5q0 172 93.5 275.5t234.5 103.5t234.5 -103.5t93.5 -275.5z" />
    <glyph glyph-name="one.frac" horiz-adv-x="471" 
d="M205 1434h164v-727h-195v481h-123v153q63 6 103.5 35t50.5 58z" />
    <glyph glyph-name="two.frac" horiz-adv-x="675" 
d="M604 1208q0 -63 -34.5 -114.5t-76.5 -79t-96.5 -62t-79.5 -61.5h277v-184h-522q0 94 33.5 165.5t82 112.5t96.5 74t81.5 66.5t33.5 72.5q0 31 -22.5 51.5t-59.5 20.5q-27 0 -52 -20.5t-38 -41.5l-12 -20l-154 53q2 8 7.5 21.5t26 49.5t48 62.5t79.5 48t116 21.5
q121 0 193.5 -67t72.5 -169z" />
    <glyph glyph-name="three.frac" horiz-adv-x="686" 
d="M502 1096q4 -2 12 -5.5t27.5 -17.5t34 -32.5t26.5 -50.5t12 -68q0 -96 -74.5 -161t-201.5 -65q-59 0 -111.5 13.5t-83 33t-53 40t-31.5 32.5l-8 14l113 113q6 -8 17.5 -22.5t52 -37t88.5 -22.5q98 0 98 72q0 82 -113 82h-71v153h71q82 0 82 52q0 61 -82 61
q-33 0 -65.5 -17.5t-48.5 -35.5l-19 -19l-102 113q4 4 10 13t29.5 29.5t51 37t73 30t94.5 13.5q117 0 190.5 -61.5t73.5 -143.5q0 -45 -22.5 -81t-47.5 -48z" />
    <glyph glyph-name="four.frac" horiz-adv-x="675" 
d="M553 1434v-420h72v-174h-72v-133h-195v133h-327v174l317 420h205zM225 1014h133v174z" />
    <glyph glyph-name="five.frac" horiz-adv-x="634" 
d="M369 1178q98 0 166.5 -69t68.5 -167q0 -111 -75.5 -178.5t-211.5 -67.5q-96 0 -169.5 26t-100.5 52l-27 25l103 123q61 -61 164 -62q51 0 81.5 26.5t30.5 65.5t-28.5 65.5t-73.5 26.5q-27 0 -50.5 -8t-33.5 -16l-8 -6h-133l41 420h440v-164h-277l-10 -113q42 21 103 21z
" />
    <glyph glyph-name="six.frac" horiz-adv-x="645" 
d="M512 1434l-143 -205q117 -23 181 -91.5t64 -174.5q0 -117 -80.5 -192t-216.5 -75q-129 0 -207.5 75t-78.5 192q0 45 13 86t26 59l12 18l225 308h205zM430 962.5q0 47.5 -29.5 75t-83.5 27.5q-47 0 -74.5 -28.5t-27.5 -73.5t27.5 -74t74.5 -29q53 0 83 27.5t30 75z" />
    <glyph glyph-name="seven.frac" horiz-adv-x="593" 
d="M31 1434h532v-185l-256 -542h-194l256 542h-338v185z" />
    <glyph glyph-name="eight.frac" horiz-adv-x="655" 
d="M327.5 860q102.5 0 102.5 72t-102.5 72t-102.5 -72t102.5 -72zM328 1157q37 0 59.5 18.5t22.5 43t-22.5 43t-59.5 18.5t-59.5 -18.5t-22.5 -43t22.5 -43t59.5 -18.5zM327.5 696q-139.5 0 -218 62.5t-78.5 152.5q0 63 35.5 107.5t72.5 54.5l35 12q-4 2 -12 5.5t-27.5 16.5
t-34 29.5t-27 44t-12.5 58.5q0 88 71 146.5t196 58.5t195.5 -58.5t70.5 -146.5q0 -49 -28.5 -88t-57.5 -53l-27 -13q6 -2 15.5 -4t34 -15t44 -30.5t35 -50.5t15.5 -74q0 -90 -79 -152.5t-218.5 -62.5z" />
    <glyph glyph-name="nine.frac" horiz-adv-x="645" 
d="M133 707l143 204q-117 23 -181 91.5t-64 175.5q0 117 81 191.5t216 74.5q129 0 207.5 -75t78.5 -191q0 -45 -12 -86t-24 -60l-15 -18l-225 -307h-205zM215 1177.5q0 -47.5 29.5 -75t83.5 -27.5q45 0 73.5 27.5t28.5 75t-28.5 75t-73.5 27.5q-53 0 -83 -27.5t-30 -75z" />
    <glyph glyph-name="zero.dnom" horiz-adv-x="757" 
d="M246 348q0 -94 38 -144t95 -50t95 50t38 144q0 102 -38 153.5t-95 51.5t-95 -51.5t-38 -153.5zM707 348q0 -166 -93.5 -267t-234.5 -101t-234.5 101t-93.5 267q0 172 93.5 275.5t234.5 103.5t234.5 -103.5t93.5 -275.5z" />
    <glyph glyph-name="one.dnom" horiz-adv-x="471" 
d="M205 717h164v-727h-195v481h-123v154q63 6 103.5 34.5t50.5 57.5z" />
    <glyph glyph-name="two.dnom" horiz-adv-x="675" 
d="M604 492q0 -63 -34.5 -114.5t-76.5 -79.5t-96.5 -62.5t-79.5 -61.5h277v-184h-522q0 94 33.5 165.5t82 112.5t96.5 74t81.5 66.5t33.5 72.5q0 31 -22.5 51.5t-59.5 20.5q-27 0 -52 -20.5t-38 -40.5l-12 -21l-154 53q2 8 7.5 21.5t26 49.5t48 62.5t79.5 48t116 21.5
q121 0 193.5 -66.5t72.5 -168.5z" />
    <glyph glyph-name="three.dnom" horiz-adv-x="686" 
d="M502 379q4 -2 12 -5t27.5 -17.5t34 -33t26.5 -50t12 -68.5q0 -96 -74.5 -160.5t-201.5 -64.5q-59 0 -111.5 13t-83 32.5t-53 40t-31.5 32.5l-8 15l113 112q6 -8 17.5 -22.5t52 -37t88.5 -22.5q98 0 98 72q0 82 -113 82h-71v154h71q82 0 82 51q0 61 -82 61
q-33 0 -65.5 -17.5t-48.5 -35.5l-19 -18l-102 112q4 4 10 13.5t29.5 30t51 36.5t73 29.5t94.5 13.5q117 0 190.5 -61.5t73.5 -143.5q0 -45 -22.5 -80.5t-47.5 -48.5z" />
    <glyph glyph-name="four.dnom" horiz-adv-x="675" 
d="M553 717v-420h72v-174h-72v-133h-195v133h-327v174l317 420h205zM225 297h133v174z" />
    <glyph glyph-name="five.dnom" horiz-adv-x="634" 
d="M369 461q98 0 166.5 -68.5t68.5 -167.5q0 -111 -75.5 -178t-211.5 -67q-96 0 -169.5 25.5t-100.5 51.5l-27 25l103 123q61 -61 164 -62q51 0 81.5 27t30.5 65.5t-28.5 65.5t-73.5 27q-27 0 -50.5 -8.5t-33.5 -16.5l-8 -6h-133l41 420h440v-164h-277l-10 -113
q42 21 103 21z" />
    <glyph glyph-name="six.dnom" horiz-adv-x="645" 
d="M512 717l-143 -205q117 -23 181 -91.5t64 -174.5q0 -117 -80.5 -191.5t-216.5 -74.5q-129 0 -207.5 74.5t-78.5 191.5q0 45 13 86t26 59l12 19l225 307h205zM430 246q0 47 -29.5 74.5t-83.5 27.5q-47 0 -74.5 -28.5t-27.5 -73.5t27.5 -74t74.5 -29q53 0 83 28t30 75z" />
    <glyph glyph-name="seven.dnom" horiz-adv-x="593" 
d="M31 717h532v-185l-256 -542h-194l256 542h-338v185z" />
    <glyph glyph-name="eight.dnom" horiz-adv-x="655" 
d="M327.5 143q102.5 0 102.5 72t-102.5 72t-102.5 -72t102.5 -72zM328 440q37 0 59.5 18.5t22.5 43t-22.5 43t-59.5 18.5t-59.5 -18.5t-22.5 -43t22.5 -43t59.5 -18.5zM327.5 -20q-139.5 0 -218 62t-78.5 153q0 63 35.5 107t72.5 54l35 13q-4 2 -12 5t-27.5 16t-34 29.5
t-27 44.5t-12.5 58q0 88 71 146.5t196 58.5t195.5 -58.5t70.5 -146.5q0 -49 -28.5 -88t-57.5 -53l-27 -12q6 -2 15.5 -4.5t34 -15.5t44 -30.5t35 -50t15.5 -73.5q0 -90 -79 -152.5t-218.5 -62.5z" />
    <glyph glyph-name="nine.dnom" horiz-adv-x="645" 
d="M133 -10l143 205q-117 23 -181 91t-64 175q0 117 81 191.5t216 74.5q129 0 207.5 -74.5t78.5 -191.5q0 -45 -12 -86t-24 -60l-15 -18l-225 -307h-205zM215 461q0 -47 29.5 -75t83.5 -28q45 0 73.5 28t28.5 75t-28.5 74.5t-73.5 27.5q-53 0 -83 -27.5t-30 -74.5z" />
    <glyph glyph-name="glyph532" horiz-adv-x="3149" 
d="M569 942v-63h-147v-408h-72v408h-145v63h364zM1063 811q66 0 112 -51t46 -121q0 -74 -46.5 -124t-111.5 -50q-59 0 -96 43v-162h-70v459h49l19 -39q39 45 98 45zM1057 528q39 0 67.5 33t28.5 78q0 43 -28.5 74.5t-67.5 31.5t-67.5 -31.5t-28.5 -74.5q0 -45 27.5 -78
t68.5 -33zM682 567l90 238h76l-158 -389q-33 -70 -100 -70q-14 0 -21 2v58q47 0 64 40l12 33l-129 326h76zM1435.5 811q65.5 0 110.5 -50t45 -120l-2 -31h-243q4 -35 29.5 -59.5t60.5 -24.5q55 0 75 35h72q-18 -45 -58 -70.5t-89 -25.5q-66 0 -113 50t-47 124q0 72 47 122
t112.5 50zM1346 666h180q-2 35 -30 58.5t-60.5 23.5t-59 -22.5t-30.5 -59.5zM1923 942v-63h-147v-408h-72v408h-145v63h364zM2417 811q66 0 111.5 -51t45.5 -121q0 -74 -46 -124t-111 -50q-59 0 -97 43v-162h-69v459h49l18 -39q40 45 99 45zM2410 528q39 0 68 33t29 78
q0 43 -29 74.5t-67.5 31.5t-67.5 -31.5t-29 -74.5q0 -45 27.5 -78t68.5 -33zM2036 567l90 238h76l-158 -389q-33 -70 -100 -70q-14 0 -21 2v58q47 0 64 40l12 33l-129 326h76zM2789.5 811q65.5 0 110.5 -50t45 -120l-2 -31h-244q4 -35 30 -59.5t60 -24.5q55 0 76 35h72
q-18 -45 -58 -70.5t-90 -25.5q-66 0 -112.5 50t-46.5 124q0 72 47 122t112.5 50zM2699 666h180q-2 35 -29.5 58.5t-60 23.5t-59.5 -22.5t-31 -59.5z" />
    </font>
</defs>
</svg>
